<?xml version="1.0" standalone="no"?>
<!DOCTYPE svg PUBLIC "-//W3C//DTD SVG 1.1//EN" "http://www.w3.org/Graphics/SVG/1.1/DTD/svg11.dtd" >
<svg xmlns="http://www.w3.org/2000/svg">
<metadata>
Generated by SVGconv.
Copyright   : Copyright  2009 ParaType Ltd. All rights reserved.
Designer    : A.Korolkova, O.Umpeleva, V.Yefimov
Foundry     : ParaType Ltd
Foundry URL : http://www.paratype.com
</metadata>
<defs>
<font id="PTSans-Regular" horiz-adv-x="525" >
<font-face units-per-em="1000" ascent="1018" descent="276" />
<missing-glyph horiz-adv-x="750" />
<glyph unicode="&#13;" horiz-adv-x="267" />
<glyph unicode="&#32;" horiz-adv-x="267" />
<glyph unicode="&#33;" horiz-adv-x="305" d="M127 700h83v-347l-17 -176h-49l-17 176zM110 46q0 27 15.5 42.5q15.5 15.5 41.5 15.5q27 0 43 -15.5q16 -15.5 16 -42.5q0 -26 -16 -42q-16 -16 -43 -16q-26 0 -41.5 16t-15.5 42z" />
<glyph unicode="&#34;" horiz-adv-x="335" d="M207 700h78l-31 -193h-47zM90 700h78l-31 -193l-47 0z" />
<glyph unicode="&#35;" horiz-adv-x="545" d="M280 225h-105l-39 -167h-69l39 167h-78l14 64h79l31 131h-74l14 64h75l38 158h69l-38 -158h105l38 158h69l-38 -158h77l-16 -64h-76l-31 -131h73l-16 -64h-72l-39 -167h-69zM190 289h105l31 131l-105 0z" />
<glyph unicode="&#36;" horiz-adv-x="545" d="M242 -12q-55 1 -97.5 9.5q-42.5 8.5 -68.5 22.5l27 73q20 -12 54.5 -22q34.5 -10 84.5 -11l0 270q-30 15 -59.5 32q-29.5 17 -52.5 40.5q-23 23.5 -37 55.5q-14 32 -14 76q0 72 40.5 118q40.5 46 122.5 57l0 91h68v-88q51 -2 83.5 -9.5q32.5 -7.5 58.5 -19.5l-24 -70q-20 10 -48 17.5q-28 7.5 -70 9.5l0 -247q31 -16 62 -34.5q31 -18.5 55.5 -42.5q24.5 -24 39.5 -56q15 -32 15 -75q0 -78 -43.5 -128.5q-43.5 -50.5 -128.5 -64.5l0 -92h-68zM399 178q0 24 -8.5 43q-8.5 19 -22.5 34q-14 15 -33 27q-19 12 -41 23l0 -243q46 7 75.5 35.5q29.5 28.5 29.5 80.5zt0 0zM162 539q0 -43 27.5 -70q27.5 -27 68.5 -49l0 219q-53 -6 -74.5 -35t-21.5 -65z" />
<glyph unicode="&#37;" horiz-adv-x="773" d="M70 542q0 45 12 77q12 32 32.5 53q20.5 21 49 30.5q28.5 9.5 61.5 9.5q33 0 61.5 -9q28.5 -9 49 -29q20.5 -20 32.5 -52.5q12 -32.5 12 -79.5q0 -47 -12 -79.5q-12 -32.5 -32.5 -52.5q-20.5 -20 -49 -29q-28.5 -9 -61.5 -9q-33 0 -61.5 9q-28.5 9 -49 29q-20.5 20 -32.5 52.5q-12 32.5 -12 79.5zt0 0zM144 542q0 -60 21.5 -86q21.5 -26 59.5 -26q19 0 34 5.5q15 5.5 25.5 18q10.5 12.5 16 34q5.5 21.5 5.5 54.5q0 33 -5.5 54.5q-5.5 21.5 -16 34q-10.5 12.5 -25.5 18q-15 5.5 -34 5.5q-38 0 -59.5 -23.5q-21.5 -23.5 -21.5 -88.5zt0 0zM427 170q0 45 12 77q12 32 32.5 53q20.5 21 49 30.5q28.5 9.5 61.5 9.5q33 0 61.5 -9q28.5 -9 49 -29q20.5 -20 32.5 -52.5q12 -32.5 12 -79.5q0 -47 -12 -79.5q-12 -32.5 -32.5 -52.5q-20.5 -20 -49 -29q-28.5 -9 -61.5 -9q-33 0 -61.5 9q-28.5 9 -49 29q-20.5 20 -32.5 52.5q-12 32.5 -12 79.5zt0 0zM501 170q0 -60 21.5 -86q21.5 -26 59.5 -26q19 0 34 5.5q15 5.5 25.5 18q10.5 12.5 16 34q5.5 21.5 5.5 54.5q0 33 -5.5 54.5q-5.5 21.5 -16 34q-10.5 12.5 -25.5 18q-15 5.5 -34 5.5q-38 0 -59.5 -23.5q-21.5 -23.5 -21.5 -88.5zt0 0zM637 713l49 -38l-513 -687l-50 39z" />
<glyph unicode="&#38;" horiz-adv-x="814" d="M118 187q0 40 14 76.5q14 36.5 38 67.5q24 31 54.5 57q30.5 26 63.5 46q-24 36 -41.5 72q-17.5 36 -17.5 78q0 24 8 47q8 23 25.5 41q17.5 18 45 29q27.5 11 66.5 11q41 0 69 -10.5q28 -10.5 45 -27.5q17 -17 24.5 -38q7.5 -21 7.5 -43q0 -42 -32.5 -86.5q-32.5 -44.5 -102.5 -85.5q16 -29 37.5 -59.5q21.5 -30.5 45.5 -60.5q24 -30 49 -59.5q25 -29.5 50 -54.5q11 12 22 30.5q11 18.5 21.5 39q10.5 20.5 19 42.5q8.5 22 15.5 42l62 -29q-6 -17 -17 -40.5q-11 -23.5 -24.5 -48q-13.5 -24.5 -27.5 -47q-14 -22.5 -26 -37.5q21 -20 38 -34.5q17 -14.5 31.5 -25q14.5 -10.5 28 -19q13.5 -8.5 27.5 -16.5l-50 -56q-53 26 -121 93q-18 -18 -39.5 -34.5q-21.5 -16.5 -48.5 -29.5q-27 -13 -59.5 -21q-32.5 -8 -71.5 -8q-47 0 -88.5 13q-41.5 13 -72.5 38.5q-31 25.5 -49.5 62.5q-18.5 37 -18.5 85zt0 0zM519 131q-29 29 -57 63q-28 34 -53.5 68q-25.5 34 -47 65.5q-21.5 31.5 -36.5 55.5q-27 -20 -50 -41q-23 -21 -40.5 -44.5q-17.5 -23.5 -27 -50.5q-9.5 -27 -9.5 -58q0 -31 13 -55.5q13 -24.5 35.5 -41q22.5 -16.5 51.5 -25.5q29 -9 61 -9q25 0 48.5 6.5q23.5 6.5 44.5 16.5q21 10 38.5 23q17.5 13 28.5 27zt0 0zM307 584q0 -30 12.5 -59.5q12.5 -29.5 32.5 -58.5q53 34 73.5 62q20.5 28 20.5 49q0 32 -15.5 52q-15.5 20 -53.5 20q-36 0 -53 -18t-17 -47z" />
<glyph unicode="&#39;" horiz-adv-x="218" d="M90 700h78l-31 -193l-47 0z" />
<glyph unicode="&#40;" horiz-adv-x="280" d="M227 -220q-46 48 -78 105.5q-32 57.5 -51.5 118q-19.5 60.5 -28.5 122q-9 61.5 -9 117.5q0 55 9 116q9 61 29 122.5q20 61.5 52.5 120.5q32.5 59 79.5 110l48 -35q-40 -51 -66.5 -105.5q-26.5 -54.5 -42.5 -110.5q-16 -56 -22.5 -111.5q-6.5 -55.5 -6.5 -106.5q0 -48 7.5 -104.5q7.5 -56.5 24 -113q16.5 -56.5 43 -110.5q26.5 -54 63.5 -98z" />
<glyph unicode="&#41;" horiz-adv-x="280" d="M53 712q46 -48 78 -105.5q32 -57.5 51.5 -118q19.5 -60.5 28.5 -122q9 -61.5 9 -117.5q0 -55 -9 -116q-9 -61 -29 -122.5q-20 -61.5 -52.5 -120.5q-32.5 -59 -79.5 -110l-48 35q40 51 67 106q27 55 42.5 111q15.5 56 22 111q6.5 55 6.5 106q0 48 -8 104q-8 56 -24.5 113q-16.5 57 -42.5 111q-26 54 -63 98z" />
<glyph unicode="&#42;" horiz-adv-x="351" d="M130 715l25 -42l18 -56l21 57l24 40l48 -26l-26 -43l-46 -48l68 12h48v-56h-46l-64 12l46 -48l23 -39l-47 -28l-26 42l-23 61l-19 -58l-25 -42l-50 28l27 42l42 42l-58 -12h-50v56h50l62 -12l-45 44l-26 46z" />
<glyph unicode="&#43;" horiz-adv-x="505" d="M40 374h176v181h72v-181h176v-72h-176v-180h-72v180l-176 0z" />
<glyph unicode="&#44;" horiz-adv-x="225" d="M49 43q0 24 16 39q16 15 41 15q31 0 50.5 -22q19.5 -22 19.5 -64q0 -36 -10 -63q-10 -27 -26 -46.5q-16 -19.5 -35 -32q-19 -12.5 -38 -18.5l-25 39q36 14 53.5 43.5q17.5 29.5 17.5 59.5q-9 -3 -17 -3q-20 0 -33.5 13.5t-13.5 39.5z" />
<glyph unicode="&#45;" horiz-adv-x="360" d="M59 325h242v-74l-242 0z" />
<glyph unicode="&#46;" horiz-adv-x="214" d="M49 46q0 27 15.5 42.5q15.5 15.5 41.5 15.5q27 0 43 -15.5q16 -15.5 16 -42.5q0 -26 -16 -42q-16 -16 -43 -16q-26 0 -41.5 16t-15.5 42z" />
<glyph unicode="&#47;" horiz-adv-x="354" d="M328 712l63 -28l-365 -824l-63 28z" />
<glyph unicode="&#48;" horiz-adv-x="545" d="M43 350q0 180 58.5 271q58.5 91 170.5 91q121 0 175.5 -89.5q54.5 -89.5 54.5 -272.5q0 -180 -58.5 -271q-58.5 -91 -171.5 -91q-119 0 -174 95q-55 95 -55 267zt0 0zM126 350q0 -65 8.5 -118.5q8.5 -53.5 26.5 -92q18 -38.5 45.5 -60q27.5 -21.5 65.5 -21.5q76 0 111.5 70.5q35.5 70.5 35.5 221.5q0 64 -7.5 118q-7.5 54 -25 93q-17.5 39 -45.5 60q-28 21 -69 21q-75 0 -110.5 -71t-35.5 -221z" />
<glyph unicode="&#49;" horiz-adv-x="545" d="M108 74h140v484l10 59l-40 -47l-110 -79l-38 51l220 170h36v-638h137v-74l-355 0z" />
<glyph unicode="&#50;" horiz-adv-x="545" d="M446 541q0 -53 -19.5 -108.5q-19.5 -55.5 -51 -111.5q-31.5 -56 -70.5 -109.5q-39 -53.5 -78 -101.5l-49 -43v-4l64 11h218v-74h-398v29q22 23 53 57q31 34 64.5 75.5q33.5 41.5 66 88q32.5 46.5 59 94.5q26.5 48 42.5 95q16 47 16 89q0 49 -28 81.5q-28 32.5 -85 32.5q-38 0 -74 -15.5q-36 -15.5 -62 -35.5l-33 57q35 30 83 47q48 17 103 17q43 0 76 -12.5q33 -12.5 56 -35.5q23 -23 35 -54.5t12 -68.5z" />
<glyph unicode="&#51;" horiz-adv-x="545" d="M234 58q34 0 63 10q29 10 50 29.5q21 19.5 33 46.5q12 27 12 59q0 70 -41.5 104q-41.5 34 -114.5 34h-74v29l144 222l46 44l-65 -10h-198v74h357v-29l-159 -239l-35 -29v-2l34 7q40 -1 74 -14.5q34 -13.5 59 -39q25 -25.5 39 -61q14 -35.5 14 -80.5q0 -54 -19 -96q-19 -42 -51.5 -70.5q-32.5 -28.5 -76.5 -43.5q-44 -15 -93 -15q-45 0 -81 7q-36 7 -63 18l21 71q23 -11 54.5 -18.5t70.5 -7.5z" />
<glyph unicode="&#52;" horiz-adv-x="545" d="M524 215h-118v-215h-78v215h-308v33l332 463h54v-426h118zM328 503l10 82h-3l-35 -68l-141 -191l-48 -49l70 8l147 0z" />
<glyph unicode="&#53;" horiz-adv-x="545" d="M213 58q69 0 114 40q45 40 45 116q0 73 -44.5 109q-44.5 36 -122.5 36l-84 -5v346h312v-74h-237v-199l43 2q99 -1 156 -55q57 -54 57 -155q0 -56 -19 -99.5q-19 -43.5 -51.5 -72.5q-32.5 -29 -76.5 -44q-44 -15 -94 -15q-45 0 -76 5q-31 5 -58 15l21 68q23 -9 49.5 -13.5t65.5 -4.5z" />
<glyph unicode="&#54;" horiz-adv-x="545" d="M492 211q0 -46 -14 -86.5q-14 -40.5 -41 -71q-27 -30.5 -67 -48q-40 -17.5 -91 -17.5q-50 0 -90 16q-40 16 -69 47.5q-29 31.5 -44.5 77.5q-15.5 46 -15.5 106q0 99 25.5 182.5q25.5 83.5 70.5 145.5q45 62 106.5 100.5q61.5 38.5 133.5 48.5l17 -64q-56 -10 -102 -38q-46 -28 -80.5 -69q-34.5 -41 -56.5 -92q-22 -51 -30 -105q16 27 54 49.5q38 22.5 93 22.5q94 0 147.5 -54q53.5 -54 53.5 -151zt0 0zM409 203q0 71 -33 107q-33 36 -102 36q-49 0 -84.5 -24q-35.5 -24 -49.5 -54q-2 -14 -2 -23q0 -9 0 -20q0 -31 8.5 -61q8.5 -30 26.5 -53.5q18 -23.5 44.5 -38q26.5 -14.5 62.5 -14.5q29 0 52.5 11q23.5 11 40.5 30q17 19 26.5 46t9.5 58z" />
<glyph unicode="&#55;" horiz-adv-x="545" d="M110 0l251 586l44 49l-59 -9h-285v74h418v-27l-288 -673z" />
<glyph unicode="&#56;" horiz-adv-x="545" d="M68 167q0 63 33 109.5q33 46.5 103 84.5q-25 15 -46.5 31.5q-21.5 16.5 -38 37.5q-16.5 21 -26 47q-9.5 26 -9.5 60q0 39 13.5 71q13.5 32 39 55q25.5 23 61 36q35.5 13 80.5 13q42 0 76 -12q34 -12 57.5 -33q23.5 -21 36.5 -50q13 -29 13 -64q0 -57 -26 -100.5q-26 -43.5 -86 -85.5q26 -15 49.5 -33q23.5 -18 41 -40q17.5 -22 27.5 -49.5q10 -27.5 10 -62.5q0 -43 -14 -78.5q-14 -35.5 -41 -61q-27 -25.5 -66 -40q-39 -14.5 -89 -14.5q-48 0 -85 14q-37 14 -62.5 38q-25.5 24 -38.5 56.5q-13 32.5 -13 70.5zt0 0zM399 177q0 30 -12 52.5q-12 22.5 -31.5 41q-19.5 18.5 -44.5 33.5q-25 15 -52 29q-61 -34 -87 -76q-26 -42 -26 -80q0 -24 8 -46q8 -22 24 -38q16 -16 39.5 -25.5q23.5 -9.5 54.5 -9.5q25 0 48 7.5q23 7.5 40.5 22q17.5 14.5 28 37q10.5 22.5 10.5 52.5zt0 0zM162 539q0 -28 11 -49.5q11 -21.5 29.5 -38.5q18.5 -17 42.5 -31.5q24 -14.5 50 -27.5q45 35 66.5 69q21.5 34 21.5 75q0 51 -31.5 78.5q-31.5 27.5 -75.5 27.5q-27 0 -48 -9q-21 -9 -36 -23q-15 -14 -22.5 -32.5t-7.5 -38.5z" />
<glyph unicode="&#57;" horiz-adv-x="545" d="M52 488q0 48 14 89q14 41 41 71q27 30 67.5 47q40.5 17 94.5 17q102 0 159 -66q57 -66 57 -186q0 -113 -25.5 -197.5q-25.5 -84.5 -70.5 -142.5q-45 -58 -106.5 -90.5q-61.5 -32.5 -133.5 -41.5l-18 64q58 9 104.5 34q46.5 25 80 63q33.5 38 54.5 86.5q21 48.5 29 105.5q-27 -32 -59.5 -44.5q-32.5 -12.5 -85.5 -12.5q-41 0 -77.5 13.5q-36.5 13.5 -64.5 39.5q-28 26 -44 64q-16 38 -16 87zt0 0zM135 496q0 -71 37.5 -106.5q37.5 -35.5 98.5 -35.5q49 0 84 16q35 16 50 42q2 13 2 23q0 10 0 21q0 36 -8.5 69.5q-8.5 33.5 -25.5 60q-17 26.5 -44.5 41.5q-27.5 15 -64.5 15q-61 0 -95 -38.5t-34 -107.5z" />
<glyph unicode="&#58;" horiz-adv-x="219" d="M91 449q0 27 15.5 42.5q15.5 15.5 41.5 15.5q27 0 43 -15.5q16 -15.5 16 -42.5q0 -26 -16 -42q-16 -16 -43 -16q-26 0 -41.5 16q-15.5 16 -15.5 42zt0 0zM91 46q0 27 15.5 42.5q15.5 15.5 41.5 15.5q27 0 43 -15.5q16 -15.5 16 -42.5q0 -26 -16 -42q-16 -16 -43 -16q-26 0 -41.5 16t-15.5 42z" />
<glyph unicode="&#59;" horiz-adv-x="256" d="M89 43q0 24 16 39q16 15 41 15q31 0 50.5 -22q19.5 -22 19.5 -64q0 -36 -10 -63q-10 -27 -26 -46.5q-16 -19.5 -35 -32q-19 -12.5 -38 -18.5l-25 39q36 14 53.5 43.5q17.5 29.5 17.5 59.5q-9 -3 -17 -3q-20 0 -33.5 13.5q-13.5 13.5 -13.5 39.5zt0 0zM96 449q0 27 15.5 42.5q15.5 15.5 41.5 15.5q27 0 43 -15.5q16 -15.5 16 -42.5q0 -26 -16 -42q-16 -16 -43 -16q-26 0 -41.5 16t-15.5 42z" />
<glyph unicode="&#60;" horiz-adv-x="505" d="M42 305v29l378 231l38 -62l-237 -145l-91 -38l90 -32l243 -144l-38 -60z" />
<glyph unicode="&#61;" horiz-adv-x="505" d="M40 457h424v-72h-424zM40 291h424v-72l-424 0z" />
<glyph unicode="&#62;" horiz-adv-x="505" d="M463 344v-29l-378 -231l-38 61l237 145l91 38l-90 32l-243 144l38 61z" />
<glyph unicode="&#63;" horiz-adv-x="436" d="M150 177q-1 5 -1 11q0 6 0 11q0 42 12.5 74q12.5 32 31 58.5q18.5 26.5 40 49.5q21.5 23 40 46.5q18.5 23.5 31 50q12.5 26.5 12.5 60.5q0 46 -26.5 75q-26.5 29 -88.5 29q-36 0 -73 -12.5q-37 -12.5 -64 -29.5l-27 62q38 23 80 36.5q42 13.5 104 13.5q44 0 77.5 -12.5q33.5 -12.5 56 -34.5q22.5 -22 33.5 -52q11 -30 11 -64q0 -45 -13.5 -78.5q-13.5 -33.5 -34 -61q-20.5 -27.5 -44 -51.5q-23.5 -24 -44 -50.5q-20.5 -26.5 -34 -57.5q-13.5 -31 -13.5 -73zM130 46q0 27 15.5 42.5q15.5 15.5 41.5 15.5q27 0 43 -15.5q16 -15.5 16 -42.5q0 -26 -16 -42q-16 -16 -43 -16q-26 0 -41.5 16t-15.5 42z" />
<glyph unicode="&#64;" horiz-adv-x="1064" d="M707 491h34l-51 -287q-5 -26 -7.5 -46.5q-2.5 -20.5 -2.5 -36.5q0 -25 8.5 -36.5q8.5 -11.5 29.5 -11.5q34 0 67.5 18q33.5 18 59.5 51q26 33 42.5 79.5q16.5 46.5 16.5 104.5q0 77 -26 136q-26 59 -73 99.5q-47 40.5 -112 61.5q-65 21 -143 21q-81 0 -152.5 -30q-71.5 -30 -124 -83q-52.5 -53 -83 -127q-30.5 -74 -30.5 -161q0 -89 27.5 -159q27.5 -70 78.5 -118q51 -48 122 -73q71 -25 158 -25q29 0 66 6.5q37 6.5 67 21.5l20 -64q-45 -19 -83 -25.5q-38 -6.5 -82 -6.5q-93 0 -174.5 28q-81.5 28 -142 83q-60.5 55 -95.5 136.5q-35 81.5 -35 188.5q0 109 37.5 197q37.5 88 101.5 150q64 62 149 95.5q85 33.5 180 33.5q90 0 167 -26.5q77 -26.5 133.5 -76q56.5 -49.5 89 -121q32.5 -71.5 32.5 -162.5q0 -64 -22 -122.5q-22 -58.5 -59.5 -102.5q-37.5 -44 -87.5 -70.5q-50 -26.5 -106 -26.5q-42 0 -67 18q-25 18 -25 67q0 9 1 19.5q1 10.5 3 22.5l-4 0q-14 -23 -33 -45.5q-19 -22.5 -42.5 -40.5q-23.5 -18 -50 -29.5q-26.5 -11.5 -55.5 -11.5q-24 0 -46 10.5q-22 10.5 -38 30.5q-16 20 -25.5 47.5q-9.5 27.5 -9.5 62.5q0 64 21 126q21 62 56.5 110q35.5 48 83 77.5q47.5 29.5 100.5 29.5q37 0 59 -11q22 -11 43 -27zM650 393q-17 20 -34 27.5q-17 7.5 -43 7.5q-39 0 -73 -23.5q-34 -23.5 -58.5 -61q-24.5 -37.5 -39 -84q-14.5 -46.5 -14.5 -91.5q0 -39 16 -66.5q16 -27.5 58 -27.5q20 0 41.5 13q21.5 13 42.5 35.5q21 22.5 40 50.5q19 28 34 57z" />
<glyph unicode="&#65;" horiz-adv-x="585" d="M418 194h-258l-70 -194h-82l265 711h38l266 -711h-87zM187 266h206l-78 213l-25 106h-1l-25 -108z" />
<glyph unicode="&#66;" horiz-adv-x="584" d="M507 540q0 -25 -8 -51q-8 -26 -24 -48.5q-16 -22.5 -41 -39.5q-25 -17 -59 -26l0 -4q30 -5 57.5 -17q27.5 -12 48.5 -33q21 -21 34 -51q13 -30 13 -71q0 -54 -22.5 -93.5q-22.5 -39.5 -59 -64.5q-36.5 -25 -83.5 -37q-47 -12 -96 -12q-17 0 -40 0q-23 0 -48 1.5q-25 1.5 -50 4q-25 2.5 -44 7.5l0 689q37 6 86 10q49 4 107 4q39 0 79.5 -6.5q40.5 -6.5 73.5 -25q33 -18.5 54.5 -51.5q21.5 -33 21.5 -85zt0 0zM275 64q32 0 62 7.5q30 7.5 53 24q23 16.5 36.5 40.5q13.5 24 13.5 57q0 41 -16.5 66q-16.5 25 -43 39q-26.5 14 -59.5 19q-33 5 -66 5h-87v-251q7 -2 20 -3q13 -1 28 -2q15 -1 31 -1.5q16 -0.5 28 -0.5zt0 0zM220 392q17 0 41 1q24 1 40 3q24 8 45 19.5q21 11.5 37.5 27q16.5 15.5 26 36q9.5 20.5 9.5 44.5q0 33 -12.5 54.5q-12.5 21.5 -33.5 34.5q-21 13 -48 18.5q-27 5.5 -55 5.5q-33 0 -60.5 -1.5q-27.5 -1.5 -41.5 -4.5l0 -238z" />
<glyph unicode="&#67;" horiz-adv-x="571" d="M533 29q-30 -23 -76 -32q-46 -9 -98 -9q-63 0 -118 21.5q-55 21.5 -96 65.5q-41 44 -65 112.5q-24 68.5 -24 162.5q0 98 26.5 166.5q26.5 68.5 70 112q43.5 43.5 97.5 63.5q54 20 110 20q60 0 98 -6.5q38 -6.5 65 -17.5l-20 -73q-48 23 -137 23q-41 0 -81 -15q-40 -15 -71.5 -49q-31.5 -34 -50.5 -89q-19 -55 -19 -135q0 -72 18 -126q18 -54 49.5 -90q31.5 -36 74 -54q42.5 -18 92.5 -18q45 0 78.5 9q33.5 9 56.5 23z" />
<glyph unicode="&#68;" horiz-adv-x="654" d="M85 700q19 3 42.5 4.5q23.5 1.5 49 2q25.5 0.5 50 1q24.5 0.5 45.5 0.5q84 0 145.5 -26q61.5 -26 101.5 -72.5q40 -46.5 59.5 -111.5q19.5 -65 19.5 -143q0 -71 -18.5 -136.5q-18.5 -65.5 -58.5 -116q-40 -50.5 -104 -81q-64 -30.5 -155 -30.5q-16 0 -41.5 0.5q-25.5 0.5 -52.5 2q-27 1.5 -50 2.5q-23 1 -33 3zM274 634q-13 0 -28.5 0q-15.5 0 -30.5 -1q-15 -1 -27.5 -2q-12.5 -1 -19.5 -2l0 -560q5 -1 19 -1.5q14 -0.5 29 -1q15 -0.5 29 -1q14 -0.5 19 -0.5q70 0 117.5 24q47.5 24 76 64.5q28.5 40.5 40.5 93q12 52.5 12 108.5q0 49 -11 98.5q-11 49.5 -38 89.5q-27 40 -72.5 65.5t-114.5 25.5z" />
<glyph unicode="&#69;" horiz-adv-x="536" d="M85 700h381v-74h-298v-229h273v-74h-273v-249h303v-74l-386 0z" />
<glyph unicode="&#70;" horiz-adv-x="517" d="M85 700h381v-74h-298v-239h278v-74h-278v-313l-83 0z" />
<glyph unicode="&#71;" horiz-adv-x="612" d="M321 349h235v-308q-16 -12 -38.5 -22q-22.5 -10 -48 -17q-25.5 -7 -53 -10.5q-27.5 -3.5 -53.5 -3.5q-67 0 -123 21.5q-56 21.5 -97 66q-41 44.5 -64 113q-23 68.5 -23 161.5q0 97 28 166q28 69 73 112.5q45 43.5 101 63.5q56 20 112 20q60 0 99 -6.5q39 -6.5 66 -17.5l-21 -73q-48 23 -137 23q-42 0 -83.5 -14.5q-41.5 -14.5 -74.5 -48.5q-33 -34 -54 -89q-21 -55 -21 -136q0 -74 17 -128q17 -54 47.5 -89.5q30.5 -35.5 73.5 -53q43 -17.5 94 -17.5q64 0 109 25l0 195l-164 20z" />
<glyph unicode="&#72;" horiz-adv-x="672" d="M504 321h-336v-321h-83v700h83v-305h336v305h83v-700l-83 0z" />
<glyph unicode="&#73;" horiz-adv-x="291" d="M104 700h83v-700l-83 0z" />
<glyph unicode="&#74;" horiz-adv-x="291" d="M112 700h83v-546q0 -80 -35.5 -122q-35.5 -42 -107.5 -42q-8 0 -20 1q-12 1 -24 3q-12 2 -23.5 5q-11.5 3 -18.5 7l16 71q28 -13 61 -13q42 0 55.5 29.5q13.5 29.5 13.5 80.5z" />
<glyph unicode="&#75;" horiz-adv-x="610" d="M215 324h-47v-324h-83v700h83v-326l45 14l235 312h96l-234 -301l-42 -33l51 -40l256 -326l-105 0z" />
<glyph unicode="&#76;" horiz-adv-x="517" d="M499 0h-414v700h83v-626l331 0z" />
<glyph unicode="&#77;" horiz-adv-x="791" d="M623 470l10 105h-5l-38 -96l-182 -316h-25l-193 317l-36 95h-5l14 -104v-471h-78v700h62l219 -358l33 -78h2l31 80l209 356h65v-700l-83 0z" />
<glyph unicode="&#78;" horiz-adv-x="673" d="M211 458l-54 101h-4l10 -101v-458h-78v711h44l335 -467l52 -96h5l-11 96v456h78v-711l-44 0z" />
<glyph unicode="&#79;" horiz-adv-x="684" d="M56 350q0 175 74 268.5q74 93.5 211 93.5q74 0 128 -26q54 -26 89.5 -73.5q35.5 -47.5 52.5 -114q17 -66.5 17 -148.5q0 -175 -74.5 -268.5q-74.5 -93.5 -212.5 -93.5q-73 0 -126.5 26q-53.5 26 -89 73.5q-35.5 47.5 -52.5 114q-17 66.5 -17 148.5zt0 0zM144 350q0 -58 11.5 -110q11.5 -52 35.5 -91.5q24 -39.5 61.5 -63q37.5 -23.5 88.5 -23.5q93 0 146 70.5q53 70.5 53 217.5q0 57 -11.5 109.5q-11.5 52.5 -36 92q-24.5 39.5 -62 63q-37.5 23.5 -89.5 23.5q-92 0 -144.5 -70.5t-52.5 -217.5z" />
<glyph unicode="&#80;" horiz-adv-x="559" d="M85 693q38 9 82 12q44 3 87 3q46 0 93.5 -9q47.5 -9 86.5 -33q39 -24 63.5 -66q24.5 -42 24.5 -107q0 -64 -23 -108q-23 -44 -61 -71.5q-38 -27.5 -87 -39.5q-49 -12 -101 -12q-5 0 -16.5 0q-11.5 0 -24 0.5q-12.5 0.5 -24.5 1.5q-12 1 -17 2l0 -266h-83zM256 636q-26 0 -50 -1q-24 -1 -38 -5l0 -290q5 -2 16 -2.5q11 -0.5 23 -1q12 -0.5 23 -0.5q11 0 16 0q34 0 67.5 6.5q33.5 6.5 60.5 23.5q27 17 43.5 48q16.5 31 16.5 79q0 41 -15.5 68.5q-15.5 27.5 -41 44q-25.5 16.5 -57.5 23.5t-64 7z" />
<glyph unicode="&#81;" horiz-adv-x="684" d="M704 -171q-24 -7 -47 -9.5q-23 -2.5 -46 -2.5q-50 0 -97.5 10.5q-47.5 10.5 -92 23q-44.5 12.5 -85.5 23q-41 10.5 -78 10.5q-24 0 -46 -6l0 73q14 3 27 5q13 2 27 2q42 0 83.5 -10.5q41.5 -10.5 84.5 -23q43 -12.5 88 -23q45 -10.5 95 -10.5q44 0 87 10zM56 350q0 175 74 268.5q74 93.5 211 93.5q74 0 128 -26q54 -26 89.5 -73.5q35.5 -47.5 52.5 -114q17 -66.5 17 -148.5q0 -175 -74.5 -268.5q-74.5 -93.5 -212.5 -93.5q-73 0 -126.5 26q-53.5 26 -89 73.5q-35.5 47.5 -52.5 114q-17 66.5 -17 148.5zt0 0zM144 350q0 -58 11.5 -110q11.5 -52 35.5 -91.5q24 -39.5 61.5 -63q37.5 -23.5 88.5 -23.5q93 0 146 70.5q53 70.5 53 217.5q0 57 -11.5 109.5q-11.5 52.5 -36 92q-24.5 39.5 -62 63q-37.5 23.5 -89.5 23.5q-92 0 -144.5 -70.5t-52.5 -217.5z" />
<glyph unicode="&#82;" horiz-adv-x="595" d="M85 693q38 7 87.5 11q49.5 4 90.5 4q46 0 87.5 -10q41.5 -10 73 -33q31.5 -23 50.5 -60q19 -37 19 -90q0 -82 -45 -133q-45 -51 -114 -68l48 -37l174 -277h-97l-193 302l-98 15v-317h-83zM265 636q-13 0 -27 0q-14 0 -27 -1q-13 -1 -24.5 -2q-11.5 -1 -18.5 -3l0 -258h78q69 0 114 34q45 34 45 106q0 54 -37 89t-103 35z" />
<glyph unicode="&#83;" horiz-adv-x="531" d="M401 178q0 42 -25 68.5q-25 26.5 -62.5 47q-37.5 20.5 -81.5 38.5q-44 18 -81.5 43.5q-37.5 25.5 -62.5 63q-25 37.5 -25 95.5q0 82 57 130q57 48 162 48q61 0 111 -9q50 -9 78 -23l-25 -73q-23 11 -67.5 21q-44.5 10 -100.5 10q-66 0 -99 -29.5q-33 -29.5 -33 -69.5q0 -39 25 -65q25 -26 62.5 -46.5q37.5 -20.5 81.5 -40.5q44 -20 81.5 -46.5q37.5 -26.5 62.5 -63.5q25 -37 25 -92q0 -45 -16 -81q-16 -36 -47 -62q-31 -26 -75 -40q-44 -14 -100 -14q-75 0 -124 11.5q-49 11.5 -76 25.5l28 75q23 -13 68 -25.5q45 -12.5 101 -12.5q33 0 62 6.5q29 6.5 50 21q21 14.5 33.5 36.5t12.5 52z" />
<glyph unicode="&#84;" horiz-adv-x="555" d="M537 626h-218v-626h-83v626h-218v74l519 0z" />
<glyph unicode="&#85;" horiz-adv-x="652" d="M487 700h80v-467q0 -63 -16.5 -109q-16.5 -46 -47 -75.5q-30.5 -29.5 -73.5 -43.5q-43 -14 -95 -14q-124 0 -187 56q-63 56 -63 170v483h83v-444q0 -53 10.5 -89.5q10.5 -36.5 31.5 -59q21 -22.5 52.5 -32.5q31.5 -10 73.5 -10q81 0 116 44.5q35 44.5 35 146.5z" />
<glyph unicode="&#86;" horiz-adv-x="568" d="M267 219l24 -106h1l26 108l169 479h83l-265 -711h-37l-270 711l91 0z" />
<glyph unicode="&#87;" horiz-adv-x="828" d="M222 231l16 -116h1l17 118l144 467h40l145 -469l17 -116h1l18 118l118 467h81l-195 -711h-46l-142 469l-18 106h-5l-18 -107l-142 -468h-46l-200 711l88 0z" />
<glyph unicode="&#88;" horiz-adv-x="618" d="M259 356l-213 344h100l142 -237l25 -57l24 57l150 237h92l-220 -337l230 -363h-97l-158 251l-27 60l-26 -60l-162 -251l-93 0z" />
<glyph unicode="&#89;" horiz-adv-x="558" d="M239 278l-231 422h97l164 -306l17 -61h1l18 63l157 304h89l-229 -421v-279l-83 0z" />
<glyph unicode="&#90;" horiz-adv-x="545" d="M38 75l353 511l42 40h-395v74h470v-75l-355 -514l-42 -37h397v-74l-470 0z" />
<glyph unicode="&#91;" horiz-adv-x="304" d="M85 700h181v-70h-103v-790h103v-70l-181 0z" />
<glyph unicode="&#92;" horiz-adv-x="380" d="M399 -111l-66 -29l-370 824l67 28z" />
<glyph unicode="&#93;" horiz-adv-x="304" d="M220 -230h-182v70h104v790h-104v70l182 0z" />
<glyph unicode="&#94;" horiz-adv-x="500" d="M234 711h29l169 -276h-82l-80 135l-23 69l-31 -70l-92 -134l-76 0z" />
<glyph unicode="&#95;" horiz-adv-x="408" d="M0 -135h408v-70l-408 0z" />
<glyph unicode="&#96;" horiz-adv-x="280" d="M220 571h-45l-115 128v21l95 0z" />
<glyph unicode="&#97;" horiz-adv-x="496" d="M69 463q38 23 88.5 34q50.5 11 105.5 11q52 0 83.5 -14q31.5 -14 48 -36.5q16.5 -22.5 22 -49.5q5.5 -27 5.5 -54q0 -60 -3 -117q-3 -57 -3 -108q0 -37 3 -70q3 -33 11 -61l-59 0l-21 70h-5q-9 -14 -22.5 -27.5q-13.5 -13.5 -32.5 -24q-19 -10.5 -44 -17.5q-25 -7 -57 -7q-32 0 -59.5 10q-27.5 10 -47.5 28.5q-20 18.5 -31.5 44.5q-11.5 26 -11.5 59q0 44 18 73.5q18 29.5 50.5 47q32.5 17.5 78 25q45.5 7.5 100.5 7.5q14 0 27.5 0q13.5 0 27.5 -2q3 30 3 54q0 55 -22 77q-22 22 -80 22q-17 0 -36.5 -2.5q-19.5 -2.5 -40 -7q-20.5 -4.5 -39 -11q-18.5 -6.5 -32.5 -14.5zM211 62q28 0 50 7.5q22 7.5 38 19q16 11.5 26.5 25.5q10.5 14 15.5 27l0 83q-14 1 -28.5 1.5q-14.5 0.5 -28.5 0.5q-31 0 -60.5 -3.5q-29.5 -3.5 -52 -13q-22.5 -9.5 -36 -26q-13.5 -16.5 -13.5 -41.5q0 -35 25 -57.5t64 -22.5z" />
<glyph unicode="&#98;" horiz-adv-x="540" d="M77 700h80v-249h4q23 29 58.5 45q35.5 16 77.5 16q97 0 145.5 -62q48.5 -62 48.5 -192q0 -131 -64 -199q-64 -68 -180 -68q-56 0 -101.5 12q-45.5 12 -68.5 26zM283 442q-50 0 -81 -28q-31 -28 -45 -79l0 -252q19 -11 46 -16.5q27 -5.5 56 -5.5q68 0 108.5 48q40.5 48 40.5 150q0 39 -7 73q-7 34 -22 58q-15 24 -38.5 38t-57.5 14z" />
<glyph unicode="&#99;" horiz-adv-x="451" d="M418 33q-30 -22 -71 -33.5q-41 -11.5 -86 -11.5q-58 0 -98 18.5q-40 18.5 -65.5 53q-25.5 34.5 -37 83q-11.5 48.5 -11.5 107.5q0 127 56 194.5q56 67.5 161 67.5q48 0 81.5 -7.5q33.5 -7.5 60.5 -21.5l-23 -69q-23 13 -51 20.5q-28 7.5 -60 7.5q-142 0 -142 -192q0 -38 7.5 -72.5q7.5 -34.5 25 -61q17.5 -26.5 46 -42.5q28.5 -16 70.5 -16q36 0 64.5 11q28.5 11 46.5 25z" />
<glyph unicode="&#100;" horiz-adv-x="538" d="M461 172q0 -51 1 -92.5q1 -41.5 9 -81.5l-54 0l-20 71h-4q-20 -35 -58 -58q-38 -23 -89 -23q-100 0 -148.5 63q-48.5 63 -48.5 197q0 128 60.5 194.5q60.5 66.5 166.5 66.5q37 0 58.5 -4q21.5 -4 46.5 -13l0 208h80zM259 58q51 0 81 26.5q30 26.5 41 80.5l0 248q-18 14 -41 20q-23 6 -61 6q-69 0 -108 -45.5q-39 -45.5 -39 -145.5q0 -41 6.5 -76q6.5 -35 21.5 -60q15 -25 39.5 -39.5t59.5 -14.5z" />
<glyph unicode="&#101;" horiz-adv-x="508" d="M442 40q-30 -24 -75.5 -38q-45.5 -14 -96.5 -14q-57 0 -99 18.5q-42 18.5 -69 53q-27 34.5 -40 82.5q-13 48 -13 108q0 128 57 195q57 67 163 67q34 0 68 -7.5q34 -7.5 61 -28.5q27 -21 44 -59.5q17 -38.5 17 -101.5q0 -33 -6 -73l-321 0q0 -44 9 -78q9 -34 28 -57.5q19 -23.5 49.5 -36q30.5 -12.5 74.5 -12.5q34 0 68 12q34 12 51 28zM270 442q-59 0 -94.5 -31q-35.5 -31 -42.5 -106l248 0q0 76 -29 106.5t-82 30.5z" />
<glyph unicode="&#102;" horiz-adv-x="319" d="M22 500h78v28q0 46 7.5 80q7.5 34 24.5 55.5q17 21.5 44 32q27 10.5 67 10.5q32 0 56.5 -4q24.5 -4 51.5 -15l-18 -67q-23 10 -43.5 13q-20.5 3 -38.5 3q-26 0 -40.5 -8q-14.5 -8 -21 -23.5q-6.5 -15.5 -8 -38q-1.5 -22.5 -1.5 -52.5v-14h133v-70h-133v-430h-80v430l-78 0z" />
<glyph unicode="&#103;" horiz-adv-x="537" d="M460 -23q0 -97 -51.5 -143q-51.5 -46 -152.5 -46q-60 0 -96.5 7.5q-36.5 7.5 -62.5 19.5l21 68q23 -9 51 -17q28 -8 73 -8q42 0 68.5 7.5q26.5 7.5 42.5 25q16 17.5 22 45q6 27.5 6 65.5v48h-4q-20 -29 -51 -44.5q-31 -15.5 -81 -15.5q-101 0 -148.5 63q-47.5 63 -47.5 196q0 128 61 194.5q61 66.5 180 66.5q57 0 97.5 -9q40.5 -9 72.5 -21zM259 59q51 0 80 25.5q29 25.5 41 79.5l0 256q-40 19 -102 19q-68 0 -107 -46q-39 -46 -39 -144q0 -42 7 -77q7 -35 22 -60q15 -25 39 -39t59 -14z" />
<glyph unicode="&#104;" horiz-adv-x="547" d="M398 0v285q0 39 -4.5 68.5q-4.5 29.5 -16.5 49q-12 19.5 -32.5 29.5q-20.5 10 -53.5 10q-47 0 -85 -30.5q-38 -30.5 -49 -78.5l0 -333h-80v700h80v-256h4q26 31 62.5 49.5q36.5 18.5 90.5 18.5q42 0 73 -9.5q31 -9.5 51.5 -33.5q20.5 -24 30 -64.5q9.5 -40.5 9.5 -102.5l0 -302z" />
<glyph unicode="&#105;" horiz-adv-x="268" d="M94 500h80v-500h-80zM77 652q0 23 15.5 39.5q15.5 16.5 39.5 16.5q24 0 41 -16.5q17 -16.5 17 -39.5q0 -23 -17 -38q-17 -15 -41 -15q-24 0 -39.5 15t-15.5 38z" />
<glyph unicode="&#106;" horiz-adv-x="267" d="M93 500h80v-527q0 -93 -32 -139q-32 -46 -102 -46q-8 0 -15 0.5q-7 0.5 -15 1.5l0 68q28 0 44.5 8.5q16.5 8.5 25.5 26.5q9 18 11.5 45.5q2.5 27.5 2.5 64.5zM76 652q0 23 15.5 39.5q15.5 16.5 39.5 16.5q24 0 41 -16.5q17 -16.5 17 -39.5q0 -23 -17 -38q-17 -15 -41 -15q-24 0 -39.5 15t-15.5 38z" />
<glyph unicode="&#107;" horiz-adv-x="479" d="M203 225h-46v-225h-80v700h80v-426l41 14l155 212h93l-153 -201l-41 -33l50 -40l167 -226l-99 0z" />
<glyph unicode="&#108;" horiz-adv-x="292" d="M166 123q0 -35 12 -50q12 -15 34 -15q13 0 28 2q15 2 34 9l9 -63q-16 -8 -44.5 -13q-28.5 -5 -49.5 -5q-45 0 -74 25.5q-29 25.5 -29 86.5v600l80 0z" />
<glyph unicode="&#109;" horiz-adv-x="812" d="M370 0v283q0 40 -3.5 69.5q-3.5 29.5 -13.5 49.5q-10 20 -28.5 30q-18.5 10 -48.5 10q-46 0 -76.5 -28q-30.5 -28 -42.5 -70l0 -344h-80v500h56l15 -61h4q27 32 62.5 52.5q35.5 20.5 92.5 20.5q48 0 78.5 -18.5q30.5 -18.5 47.5 -64.5q23 39 63.5 61q40.5 22 91.5 22q42 0 71 -9.5q29 -9.5 48 -33.5q19 -24 27.5 -65q8.5 -41 8.5 -104v-300h-80v301q0 36 -3.5 62.5q-3.5 26.5 -14 44q-10.5 17.5 -29 26q-18.5 8.5 -48.5 8.5q-50 0 -78 -28q-28 -28 -40 -80l0 -334z" />
<glyph unicode="&#110;" horiz-adv-x="547" d="M398 0v285q0 78 -22.5 117.5q-22.5 39.5 -82.5 39.5q-53 0 -87.5 -28.5q-34.5 -28.5 -48.5 -71.5l0 -342h-80v500h56l15 -61h4q24 32 64.5 52.5q40.5 20.5 96.5 20.5q41 0 72 -9.5q31 -9.5 51.5 -33.5q20.5 -24 31 -64.5q10.5 -40.5 10.5 -102.5l0 -302z" />
<glyph unicode="&#111;" horiz-adv-x="536" d="M49 250q0 127 56.5 194.5q56.5 67.5 162.5 67.5q56 0 97.5 -18.5q41.5 -18.5 68.5 -53q27 -34.5 40 -83q13 -48.5 13 -107.5q0 -127 -56.5 -194.5q-56.5 -67.5 -162.5 -67.5q-56 0 -97.5 18.5q-41.5 18.5 -68.5 53q-27 34.5 -40 83q-13 48.5 -13 107.5zt0 0zM132 250q0 -38 7.5 -73q7.5 -35 23.5 -61q16 -26 42 -42q26 -16 63 -16q136 -1 136 192q0 39 -7.5 74q-7.5 35 -23.5 61q-16 26 -42 41.5q-26 15.5 -63 15.5q-136 1 -136 -192z" />
<glyph unicode="&#112;" horiz-adv-x="541" d="M77 500h55l15 -60h4q23 35 59.5 53.5q36.5 18.5 83.5 18.5q100 0 149 -59q49 -59 49 -193q0 -63 -16.5 -113.5q-16.5 -50.5 -46.5 -85.5q-30 -35 -72.5 -54q-42.5 -19 -94.5 -19q-37 0 -58.5 4.5q-21.5 4.5 -46.5 15.5l0 -208h-80zM279 442q-51 0 -80.5 -26.5q-29.5 -26.5 -41.5 -80.5l0 -248q18 -14 41 -21.5q23 -7.5 61 -7.5q69 0 109.5 51.5q40.5 51.5 40.5 151.5q0 41 -7 74.5q-7 33.5 -22.5 57q-15.5 23.5 -40 36.5t-60.5 13z" />
<glyph unicode="&#113;" horiz-adv-x="537" d="M460 -200h-80v250h-4q-20 -30 -50.5 -46q-30.5 -16 -80.5 -16q-100 0 -148 63.5q-48 63.5 -48 196.5q0 129 62 195q62 66 181 66q53 0 99.5 -10q46.5 -10 68.5 -21zM259 58q51 0 80 26q29 26 41 80l0 256q-37 19 -102 19q-69 0 -107.5 -46.5q-38.5 -46.5 -38.5 -143.5q0 -42 7 -77.5q7 -35.5 22 -60.5q15 -25 39 -39t59 -14z" />
<glyph unicode="&#114;" horiz-adv-x="340" d="M313 423q-30 10 -57 10q-43 0 -68 -23.5q-25 -23.5 -31 -59.5l0 -350h-80v500h56l15 -61h4q19 34 45.5 52.5q26.5 18.5 67.5 18.5q29 0 65 -10z" />
<glyph unicode="&#115;" horiz-adv-x="421" d="M297 136q0 30 -18 47q-18 17 -44.5 28.5q-26.5 11.5 -58 22q-31.5 10.5 -58 27q-26.5 16.5 -44.5 42.5q-18 26 -18 70q0 72 41 105.5q41 33.5 114 33.5q54 0 90.5 -9.5q36.5 -9.5 63.5 -22.5l-19 -66q-23 11 -55.5 19.5q-32.5 8.5 -69.5 8.5q-44 0 -64.5 -15q-20.5 -15 -20.5 -52q0 -26 18 -40.5q18 -14.5 44.5 -26q26.5 -11.5 58 -22.5q31.5 -11 58 -29q26.5 -18 44.5 -45.5q18 -27.5 18 -72.5q0 -32 -10.5 -60q-10.5 -28 -32.5 -48q-22 -20 -54.5 -31.5q-32.5 -11.5 -76.5 -11.5q-57 0 -97 11q-40 11 -67 26l24 68q23 -13 60 -24q37 -11 75 -11q43 0 71 17t28 61z" />
<glyph unicode="&#116;" horiz-adv-x="339" d="M11 500h78v99l80 23v-122h136v-70h-136v-277q0 -52 13 -73.5q13 -21.5 44 -21.5q26 0 44 5.5q18 5.5 40 14.5l18 -61q-27 -13 -59 -21q-32 -8 -69 -8q-61 0 -86 34.5q-25 34.5 -25 115.5v292l-78 0z" />
<glyph unicode="&#117;" horiz-adv-x="539" d="M149 500v-285q0 -39 4.5 -68.5q4.5 -29.5 15.5 -49q11 -19.5 30 -29.5q19 -10 48 -10q27 0 48 8.5q21 8.5 37.5 23.5q16.5 15 29 34.5q12.5 19.5 20.5 41.5l0 334h80v-358q0 -36 2.5 -74.5q2.5 -38.5 8.5 -67.5l-55 0l-20 79h-5q-23 -39 -62 -65q-39 -26 -99 -26q-40 0 -70.5 9.5q-30.5 9.5 -51 33.5q-20.5 24 -31 64.5q-10.5 40.5 -10.5 102.5l0 302z" />
<glyph unicode="&#118;" horiz-adv-x="482" d="M221 207l28 -95h1l25 97l112 291h86l-213 -511h-34l-217 511l92 0z" />
<glyph unicode="&#119;" horiz-adv-x="735" d="M401 500l115 -292l25 -96h2l19 98l89 290h76l-168 -511h-39l-131 330l-19 82h-3l-20 -83l-126 -329h-39l-174 511h87l99 -291l17 -97h1l24 99l107 289z" />
<glyph unicode="&#120;" horiz-adv-x="515" d="M208 256l-168 244h98l95 -138l28 -57l29 57l97 138h90l-169 -240l179 -260h-95l-106 152l-30 60l-31 -60l-108 -152l-89 0z" />
<glyph unicode="&#121;" horiz-adv-x="466" d="M224 176l28 -96h5l22 97l97 323h81l-148 -449q-17 -49 -33.5 -95q-16.5 -46 -36.5 -82q-20 -36 -45 -57.5q-25 -21.5 -58 -21.5q-36 0 -59 10l14 69q13 -5 25 -5q28 0 54 29.5q26 29.5 43 101.5l-201 500l92 0z" />
<glyph unicode="&#122;" horiz-adv-x="447" d="M42 70l231 318l42 42h-273v70h356v-70l-233 -321l-41 -39h274v-70l-356 0z" />
<glyph unicode="&#123;" horiz-adv-x="346" d="M137 112q0 51 -21 69.5q-21 18.5 -59 18.5l0 70q38 0 59 20q21 20 21 64v242q0 47 23.5 76q23.5 29 71.5 29h85v-70h-50q-27 0 -39.5 -13.5q-12.5 -13.5 -12.5 -45.5v-237q0 -44 -21 -67q-21 -23 -49 -28l0 -6q27 -4 48.5 -30.5q21.5 -26.5 21.5 -68.5v-236q0 -31 12 -45q12 -14 41 -14h49v-70h-85q-45 0 -70 26.5q-25 26.5 -25 77.5z" />
<glyph unicode="&#124;" horiz-adv-x="238" d="M85 700h68v-830l-68 0z" />
<glyph unicode="&#125;" horiz-adv-x="346" d="M235 359q0 -51 21 -69.5q21 -18.5 59 -18.5l0 -70q-38 0 -59 -20q-21 -20 -21 -64v-242q0 -47 -23.5 -76q-23.5 -29 -71.5 -29h-85v70h50q27 0 39.5 13.5q12.5 13.5 12.5 45.5v237q0 44 20.5 67q20.5 23 48.5 28l0 6q-27 4 -48 30.5q-21 26.5 -21 68.5v236q0 31 -12 45q-12 14 -40 14h-50v70h86q44 0 69 -26.5q25 -26.5 25 -77.5z" />
<glyph unicode="&#126;" horiz-adv-x="505" d="M31 361q43 33 78 46q35 13 64 13q28 0 52 -8.5q24 -8.5 46 -19q22 -10.5 43 -19q21 -8.5 44 -8.5q19 0 39 8q20 8 43 28l34 -61q-38 -26 -68.5 -36.5q-30.5 -10.5 -55.5 -10.5q-27 0 -49.5 8.5q-22.5 8.5 -43 19q-20.5 10.5 -41 19q-20.5 8.5 -44.5 8.5q-23 0 -49 -10.5q-26 -10.5 -58 -36.5z" />
<glyph unicode="&#160;" horiz-adv-x="267" />
<glyph unicode="&#161;" horiz-adv-x="304" d="M176 -200h-83v347l17 176h49l17 -176zM77 453q0 27 15.5 42.5q15.5 15.5 41.5 15.5q27 0 43 -15.5q16 -15.5 16 -42.5q0 -26 -16 -42q-16 -16 -43 -16q-26 0 -41.5 16t-15.5 42z" />
<glyph unicode="&#162;" horiz-adv-x="545" d="M461 33q-24 -17 -54.5 -27.5q-30.5 -10.5 -65.5 -14.5l0 -91h-71v90q-50 5 -84.5 25.5q-34.5 20.5 -56.5 54q-22 33.5 -32 79.5q-10 46 -10 101q0 115 47.5 181.5q47.5 66.5 135.5 77.5l0 91h71v-89q35 -2 62 -9.5q27 -7.5 49 -18.5l-23 -68q-20 10 -44.5 17q-24.5 7 -50.5 9l0 -383q32 2 58 12.5q26 10.5 43 23.5zM170 250q0 -33 5.5 -63.5q5.5 -30.5 18.5 -56q13 -25.5 34 -43.5q21 -18 52 -25l0 377q-110 -21 -110 -189z" />
<glyph unicode="&#163;" horiz-adv-x="545" d="M50 383h66q-12 26 -20 57q-8 31 -8 73q0 98 56 148.5q56 50.5 153 50.5q61 0 106 -9q45 -9 74 -23l-26 -71q-23 11 -61.5 20q-38.5 9 -93.5 9q-60 0 -92.5 -32.5q-32.5 -32.5 -32.5 -87.5q0 -42 10 -74q10 -32 24 -61l161 0v-70h-131q8 -23 13 -48q5 -25 5 -55q0 -30 -9 -61.5q-9 -31.5 -27 -51.5l-39 -33v-4l62 14h256v-74h-446v72q32 0 54.5 11.5q22.5 11.5 37 30q14.5 18.5 21.5 42q7 23.5 7 47.5q0 33 -6.5 59.5q-6.5 26.5 -16.5 50.5l-97 0z" />
<glyph unicode="&#164;" horiz-adv-x="545" d="M70 596l78 -77l21 -35q42 33 103 33q59 0 103 -33l22 35l78 77l49 -49l-77 -78l-35 -22q32 -43 32 -102q0 -60 -32 -103l35 -21l77 -78l-49 -48l-78 77l-21 33q-43 -31 -104 -31q-62 0 -103 31l-21 -33l-78 -77l-49 48l77 78l34 22q-31 42 -31 102q0 29 8.5 55q8.5 26 22.5 48l-34 21l-77 78zM170 345q0 -45 28.5 -75q28.5 -30 73.5 -30q45 0 74 30q29 30 29 75q0 45 -29 75.5q-29 30.5 -74 30.5q-45 0 -73.5 -30.5t-28.5 -75.5z" />
<glyph unicode="&#165;" horiz-adv-x="545" d="M111 328h94l-203 372h97l164 -306l17 -61h1l18 63l157 304h89l-203 -372h96v-60h-122v-71h122v-60h-122v-137h-83v137h-122v60h122v71l-122 0z" />
<glyph unicode="&#166;" horiz-adv-x="238" d="M85 206h68v-336h-68zM153 364h-68v336l68 0z" />
<glyph unicode="&#167;" horiz-adv-x="497" d="M57 353q0 31 15.5 60.5q15.5 29.5 41.5 52.5l41 14q-26 16 -43.5 40.5q-17.5 24.5 -17.5 65.5q0 56 41.5 91q41.5 35 115.5 35q54 0 91.5 -9q37.5 -9 64.5 -22l-19 -67q-24 11 -57 19.5q-33 8.5 -69 8.5q-45 0 -66.5 -16q-21.5 -16 -21.5 -43q0 -26 19.5 -40.5q19.5 -14.5 49.5 -25.5q30 -11 64 -22q34 -11 64 -28.5q30 -17.5 49.5 -46q19.5 -28.5 19.5 -73.5q0 -31 -15 -60q-15 -29 -41 -52l-45 -14q27 -16 45.5 -41q18.5 -25 18.5 -66q0 -31 -12 -54.5q-12 -23.5 -33.5 -39.5q-21.5 -16 -50.5 -24q-29 -8 -62 -8q-56 0 -92 9.5q-36 9.5 -64 23.5l20 65q23 -11 55.5 -19.5q32.5 -8.5 70.5 -8.5q42 0 65 13.5q23 13.5 23 45.5q0 26 -19.5 41q-19.5 15 -49.5 26q-30 11 -64 22q-34 11 -64 28.5q-30 17.5 -49.5 45.5q-19.5 28 -19.5 73zt0 0zM360 345q0 25 -13 41q-13 16 -34.5 27.5q-21.5 11.5 -48.5 20q-27 8.5 -54 18.5q-29 -13 -51 -37q-22 -24 -22 -60q0 -25 13 -41q13 -16 33.5 -27.5q20.5 -11.5 47 -19.5q26.5 -8 53.5 -18q14 6 27.5 16q13.5 10 24.5 22.5q11 12.5 17.5 27t6.5 30.5z" />
<glyph unicode="&#168;" horiz-adv-x="411" d="M60 653q0 23 13.5 37q13.5 14 35.5 14q22 0 35.5 -14q13.5 -14 13.5 -37q0 -21 -13.5 -35q-13.5 -14 -35.5 -14q-22 0 -35.5 14q-13.5 14 -13.5 35zt0 0zM252 653q0 23 13.5 37q13.5 14 35.5 14q23 0 36.5 -14q13.5 -14 13.5 -37q0 -21 -13.5 -35q-13.5 -14 -36.5 -14q-22 0 -35.5 14t-13.5 35z" />
<glyph unicode="&#169;" horiz-adv-x="806" d="M51 290q0 83 28 148.5q28 65.5 76 110.5q48 45 112 69q64 24 136 24q72 0 136 -24q64 -24 112 -69q48 -45 76 -110.5q28 -65.5 28 -148.5q0 -83 -28 -148.5q-28 -65.5 -76 -110.5q-48 -45 -112 -69q-64 -24 -136 -24q-80 0 -145 24q-65 24 -111 69q-46 45 -71 110.5q-25 65.5 -25 148.5zt0 0zM121 290q0 -69 22 -122.5q22 -53.5 60 -89.5q38 -36 89.5 -55q51.5 -19 110.5 -19q59 0 110.5 19q51.5 19 89.5 55q38 36 60 89.5q22 53.5 22 122.5q0 69 -22 122.5q-22 53.5 -60 89.5q-38 36 -89.5 55q-51.5 19 -110.5 19q-59 0 -110.5 -19q-51.5 -19 -89.5 -55q-38 -36 -60 -89.5q-22 -53.5 -22 -122.5zt0 0zM519 127q-23 -13 -51.5 -20q-28.5 -7 -66.5 -7q-81 0 -123.5 51q-42.5 51 -42.5 139q0 91 45.5 140.5q45.5 49.5 120.5 49.5q18 0 32.5 -2q14.5 -2 27 -5.5q12.5 -3.5 24.5 -8.5q12 -5 27 -11l-26 -61q-22 11 -42 15q-20 4 -34 4q-42 0 -68.5 -26q-26.5 -26 -26.5 -95q0 -58 26 -89.5q26 -31.5 77 -32.5q47 0 80 18z" />
<glyph unicode="&#170;" horiz-adv-x="386" d="M68 677q25 13 66 22q41 9 91 9q62 0 85 -26q23 -26 23 -75q0 -38 -1.5 -73q-1.5 -35 -1.5 -67q0 -24 1.5 -46q1.5 -22 6.5 -41l-55 0l-13 46h-4q-13 -17 -37 -33.5q-24 -16.5 -67 -16.5q-52 0 -83 25.5q-31 25.5 -31 69.5q0 31 15 52q15 21 40.5 34q25.5 13 60 19q34.5 6 74.5 6q7 0 13.5 -0.5q6.5 -0.5 13.5 -0.5q1 6 1 11.5q0 5.5 0 10.5q0 27 -12 38q-12 11 -46 11q-40 0 -73 -7.5q-33 -7.5 -52 -17.5zM173 432q21 0 36.5 5q15.5 5 26.5 13.5q11 8.5 18 18q7 9.5 11 18.5l0 42q-11 1 -21 1q-10 0 -21 0q-21 0 -40 -2q-19 -2 -33.5 -8q-14.5 -6 -23 -16.5q-8.5 -10.5 -8.5 -27.5q0 -20 14.5 -32t40.5 -12z" />
<glyph unicode="&#171;" horiz-adv-x="478" d="M222 259l158 228l53 -42l-97 -144l-48 -41l48 -36l103 -141l-52 -43zM39 259l160 230l54 -43l-98 -145l-48 -41l48 -36l104 -142l-54 -44z" />
<glyph unicode="&#172;" horiz-adv-x="505" d="M41 392h424v-192h-72v120l-352 0z" />
<glyph unicode="&#173;" horiz-adv-x="360" d="M58 325h244v-74l-244 0z" />
<glyph unicode="&#174;" horiz-adv-x="700" d="M85 451q0 64 21 113.5q21 49.5 57.5 83q36.5 33.5 84.5 51q48 17.5 102 17.5q55 0 103.5 -17.5q48.5 -17.5 84.5 -51q36 -33.5 56.5 -83q20.5 -49.5 20.5 -113.5q0 -64 -21 -113.5q-21 -49.5 -57.5 -83q-36.5 -33.5 -84.5 -51q-48 -17.5 -102 -17.5q-56 0 -104 17.5q-48 17.5 -84 51q-36 33.5 -56.5 83q-20.5 49.5 -20.5 113.5zt0 0zM148 451q0 -52 16 -90.5q16 -38.5 43.5 -64q27.5 -25.5 64.5 -38.5q37 -13 78 -13q43 0 80 12.5q37 12.5 64 38q27 25.5 42.5 64q15.5 38.5 15.5 91.5q0 52 -16 90.5q-16 38.5 -43.5 64q-27.5 25.5 -64 38.5q-36.5 13 -78.5 13q-44 0 -81 -13q-37 -13 -64 -38.5q-27 -25.5 -42 -64q-15 -38.5 -15 -90.5zt0 0zM247 581q16 5 45 7.5q29 2.5 55 2.5q42 0 72 -17.5q30 -17.5 30 -60.5q0 -32 -20.5 -49q-20.5 -17 -50.5 -19l28 -14l74 -109h-61l-72 104l-48 15v-119h-52zM336 546q-11 0 -21 -0.5q-10 -0.5 -16 -3.5l0 -71h34q29 0 45 9q16 9 16 31q0 35 -58 35z" />
<glyph unicode="&#175;" horiz-adv-x="416" d="M60 643h296v-62l-296 0z" />
<glyph unicode="&#176;" horiz-adv-x="425" d="M85 571q0 31 11 57q11 26 30 44.5q19 18.5 45 29q26 10.5 55 10.5q29 0 55 -9.5q26 -9.5 45 -28q19 -18.5 30 -44.5q11 -26 11 -59q0 -33 -11 -59q-11 -26 -30 -44.5q-19 -18.5 -45 -28q-26 -9.5 -55 -9.5q-29 0 -55 9.5q-26 9.5 -45 28q-19 18.5 -30 44.5q-11 26 -11 59zt0 0zM148 571q0 -38 23.5 -59.5q23.5 -21.5 54.5 -21.5q31 0 54.5 21.5q23.5 21.5 23.5 59.5q0 38 -23.5 59.5q-23.5 21.5 -54.5 21.5q-31 0 -54.5 -21.5t-23.5 -59.5z" />
<glyph unicode="&#177;" horiz-adv-x="505" d="M40 493h176v181h72v-181h176v-72h-176v-120h-72v120h-176zM40 250h424v-72l-424 0z" />
<glyph unicode="&#178;" horiz-adv-x="394" d="M319 690q0 -31 -10.5 -60q-10.5 -29 -28 -57q-17.5 -28 -41.5 -55.5q-24 -27.5 -51 -55.5l-46 -32v-2l57 15h140v-63h-291v33q23 19 57.5 51q34.5 32 66.5 69q32 37 54.5 76q22.5 39 22.5 72q0 31 -20 46.5q-20 15.5 -49 15.5q-27 0 -52.5 -9.5q-25.5 -9.5 -44.5 -21.5l-22 57q26 18 60.5 28q34.5 10 70.5 10q63 0 95 -31t32 -86z" />
<glyph unicode="&#179;" horiz-adv-x="394" d="M169 433q48 0 73.5 19q25.5 19 25.5 56q0 32 -23 52q-23 20 -74 20h-55v23l97 116l34 27l-49 -6h-130v60h256v-33l-103 -123l-25 -18v-2l23 3q55 -1 87 -33q32 -32 32 -86q0 -61 -44.5 -98q-44.5 -37 -118.5 -37q-36 0 -62 6q-26 6 -46 13l15 60q17 -8 39 -13.5t48 -5.5z" />
<glyph unicode="&#180;" horiz-adv-x="268" d="M119 720h89v-21l-101 -128l-47 0z" />
<glyph unicode="&#181;" horiz-adv-x="552" d="M148 500v-283q0 -79 24.5 -119q24.5 -40 85.5 -40q55 0 93 32.5q38 32.5 53 85.5l0 324h80v-337q0 -41 2.5 -82.5q2.5 -41.5 12.5 -80.5l-55 0l-28 74h-4q-20 -35 -61.5 -60.5q-41.5 -25.5 -101.5 -25.5q-48 0 -73.5 14q-25.5 14 -43.5 36l-5 0l21 -105v-133h-80l0 700z" />
<glyph unicode="&#182;" horiz-adv-x="494" d="M341 700h68v-830h-68zM185 310q-32 0 -59 16.5q-27 16.5 -46.5 44q-19.5 27.5 -31 63q-11.5 35.5 -11.5 72.5q0 37 11.5 72q11.5 35 33.5 62q22 27 54 43.5q32 16.5 72 16.5h45v-830l-68 0z" />
<glyph unicode="&#183;" horiz-adv-x="267" d="M76 296q0 27 15.5 42.5q15.5 15.5 41.5 15.5q27 0 43 -15.5q16 -15.5 16 -42.5q0 -26 -16 -42q-16 -16 -43 -16q-26 0 -41.5 16t-15.5 42z" />
<glyph unicode="&#184;" horiz-adv-x="287" d="M172 0l-24 -43q42 -8 60.5 -26q18.5 -18 18.5 -49q0 -39 -32 -64.5q-32 -25.5 -90 -25.5q-11 0 -22 1q-11 1 -23 3l9 39q6 -1 11 -1q5 0 10 0q22 0 34.5 4q12.5 4 19 9.5q6.5 5.5 8 12.5q1.5 7 1.5 13q0 28 -86 37l48 90z" />
<glyph unicode="&#185;" horiz-adv-x="394" d="M72 441h106v254l7 36l-27 -28l-78 -47l-27 49l154 102h41v-366h95v-61l-271 0z" />
<glyph unicode="&#186;" horiz-adv-x="398" d="M44 542q0 45 12 77q12 32 32.5 53q20.5 21 49 30.5q28.5 9.5 61.5 9.5q33 0 61.5 -9q28.5 -9 49 -29q20.5 -20 32.5 -52.5q12 -32.5 12 -79.5q0 -47 -12 -79.5q-12 -32.5 -32.5 -52.5q-20.5 -20 -49 -29q-28.5 -9 -61.5 -9q-33 0 -61.5 9q-28.5 9 -49 29q-20.5 20 -32.5 52.5q-12 32.5 -12 79.5zt0 0zM118 542q0 -60 21.5 -86q21.5 -26 59.5 -26q19 0 34 5.5q15 5.5 25.5 18q10.5 12.5 16 34q5.5 21.5 5.5 54.5q0 33 -5.5 54.5q-5.5 21.5 -16 34q-10.5 12.5 -25.5 18q-15 5.5 -34 5.5q-38 0 -59.5 -23.5t-21.5 -88.5z" />
<glyph unicode="&#187;" horiz-adv-x="478" d="M257 268l-160 -228l-52 42l96 144l49 41l-49 36l-102 141l52 43zM439 268l-160 -230l-54 43l98 145l48 41l-48 36l-104 142l53 44z" />
<glyph unicode="&#188;" horiz-adv-x="837" d="M628 713l52 -35l-487 -690l-52 36zM797 96h-83v-96h-67v96h-204v37l226 302h45v-280h83zM647 283l6 49h-2l-22 -46l-78 -105l-33 -31l50 5h79zM179 595l7 36l-28 -28l-78 -47l-27 49l154 102h42v-427l-70 0z" />
<glyph unicode="&#189;" horiz-adv-x="850" d="M628 713l52 -35l-487 -690l-52 36zM790 310q0 -31 -10.5 -60q-10.5 -29 -28 -57q-17.5 -28 -41.5 -55.5q-24 -27.5 -51 -55.5l-46 -32v-2l57 15h140v-63h-291v33q23 19 57.5 51q34.5 32 66.5 69q32 37 54.5 76q22.5 39 22.5 72q0 31 -20 46.5q-20 15.5 -49 15.5q-27 0 -52.5 -9.5q-25.5 -9.5 -44.5 -21.5l-22 57q26 18 60.5 28q34.5 10 70.5 10q63 0 95 -31q32 -31 32 -86zt0 0zM179 595l7 36l-28 -28l-78 -47l-27 49l154 102h42v-427l-70 0z" />
<glyph unicode="&#190;" horiz-adv-x="876" d="M667 713l52 -35l-487 -690l-52 36zM836 96h-83v-96h-67v96h-204v37l226 302h45v-280h83zM686 283l6 49h-2l-22 -46l-78 -105l-33 -31l50 5h79zM178 333q48 0 73.5 19q25.5 19 25.5 56q0 32 -23 52q-23 20 -74 20h-55v23l97 116l34 27l-49 -6h-130v60h256v-33l-103 -123l-25 -18v-2l23 3q55 -1 87 -33q32 -32 32 -86q0 -61 -44.5 -98q-44.5 -37 -118.5 -37q-36 0 -62 6q-26 6 -46 13l15 60q17 -8 39 -13.5t48 -5.5z" />
<glyph unicode="&#191;" horiz-adv-x="436" d="M286 323q1 -5 1 -11q0 -6 0 -11q0 -42 -12.5 -74q-12.5 -32 -31 -58.5q-18.5 -26.5 -40 -49.5q-21.5 -23 -40 -46.5q-18.5 -23.5 -31 -50q-12.5 -26.5 -12.5 -60.5q0 -46 26.5 -75q26.5 -29 88.5 -29q36 0 73 12.5q37 12.5 64 29.5l27 -62q-38 -23 -80 -36.5q-42 -13.5 -104 -13.5q-44 0 -77.5 12.5q-33.5 12.5 -56 34.5q-22.5 22 -33.5 51.5q-11 29.5 -11 64.5q0 45 13.5 78.5q13.5 33.5 34 61q20.5 27.5 44 51.5q23.5 24 44 50.5q20.5 26.5 34 57.5q13.5 31 13.5 73zM191 454q0 27 15.5 42.5q15.5 15.5 41.5 15.5q27 0 43 -15.5q16 -15.5 16 -42.5q0 -26 -16 -42q-16 -16 -43 -16q-26 0 -41.5 16t-15.5 42z" />
<glyph unicode="&#192;" horiz-adv-x="585" d="M418 194h-258l-70 -194h-82l265 711h38l266 -711h-87zM187 266h206l-78 213l-25 106h-1l-25 -108zM367 752h-74l-158 97v21l114 0z" />
<glyph unicode="&#193;" horiz-adv-x="585" d="M418 194h-258l-70 -194h-82l265 711h38l266 -711h-87zM187 266h206l-78 213l-25 106h-1l-25 -108zM331 870h114v-21l-163 -97l-69 0z" />
<glyph unicode="&#194;" horiz-adv-x="585" d="M418 194h-258l-70 -194h-82l265 711h38l266 -711h-87zM187 266h206l-78 213l-25 106h-1l-25 -108zM265 870h60l127 -102v-21h-81l-60 49l-17 35l-19 -34l-64 -50h-79l0 22z" />
<glyph unicode="&#195;" horiz-adv-x="585" d="M418 194h-258l-70 -194h-82l265 711h38l266 -711h-87zM187 266h206l-78 213l-25 106h-1l-25 -108zM135 785q31 32 57.5 43.5q26.5 11.5 50.5 11.5q19 0 37 -5q18 -5 34.5 -11.5q16.5 -6.5 32.5 -11.5q16 -5 31 -5q26 0 50 21l25 -43q-27 -25 -51 -34.5q-24 -9.5 -45 -9.5q-19 0 -36 5q-17 5 -33.5 11.5q-16.5 6.5 -32.5 11.5q-16 5 -32 5q-16 0 -31.5 -6.5q-15.5 -6.5 -32.5 -23.5z" />
<glyph unicode="&#196;" horiz-adv-x="585" d="M418 194h-258l-70 -194h-82l265 711h38l266 -711h-87zM187 266h206l-78 213l-25 106h-1l-25 -108zM144 794q0 21 15 34q15 13 39 13q23 0 37.5 -13q14.5 -13 14.5 -34q0 -20 -14.5 -33q-14.5 -13 -37.5 -13q-24 0 -39 13q-15 13 -15 33zt0 0zM336 794q0 21 14.5 34q14.5 13 37.5 13q24 0 39 -13q15 -13 15 -34q0 -20 -15 -33q-15 -13 -39 -13q-23 0 -37.5 13t-14.5 33z" />
<glyph unicode="&#197;" horiz-adv-x="585" d="M188 768q0 37 25 61q25 24 80 24q50 0 78 -21.5q28 -21.5 28 -63.5q0 -32 -20 -53.5q-20 -21.5 -59 -27.5l257 -687h-87l-72 194h-258l-70 -194h-82l256 687q-38 6 -57 27.5q-19 21.5 -19 53.5zt0 0zM187 266h206l-78 213l-25 106h-1l-25 -108zM249 768q0 -17 10.5 -28.5q10.5 -11.5 33.5 -11.5q22 0 33.5 11q11.5 11 11.5 29q0 19 -11 30.5q-11 11.5 -34 11.5q-22 0 -33 -11.5t-11 -30.5z" />
<glyph unicode="&#198;" horiz-adv-x="846" d="M391 600l-34 -103l-133 -229h171v332zM395 198h-214l-112 -198h-91l415 700h383v-74h-298v-229h273v-74h-273v-249h303v-74l-386 0z" />
<glyph unicode="&#199;" horiz-adv-x="571" d="M533 29q-26 -20 -64 -29q-38 -9 -83 -11l-17 -32q42 -8 60.5 -26q18.5 -18 18.5 -49q0 -39 -32 -64.5q-32 -25.5 -90 -25.5q-11 0 -22 1q-11 1 -23 3l9 39q6 -1 11 -1q5 0 10 0q22 0 34.5 4q12.5 4 19 9.5q6.5 5.5 8 12.5q1.5 7 1.5 13q0 28 -86 37l42 80q-58 4 -108 27.5q-50 23.5 -87 67.5q-37 44 -58 110q-21 66 -21 155q0 98 26.5 166.5q26.5 68.5 70 112q43.5 43.5 97.5 63.5q54 20 110 20q60 0 98 -6.5q38 -6.5 65 -17.5l-20 -73q-48 23 -137 23q-41 0 -81 -15q-40 -15 -71.5 -49q-31.5 -34 -50.5 -89q-19 -55 -19 -135q0 -72 18 -126q18 -54 49.5 -90q31.5 -36 74 -54q42.5 -18 92.5 -18q45 0 78.5 9q33.5 9 56.5 23z" />
<glyph unicode="&#200;" horiz-adv-x="536" d="M85 700h381v-74h-298v-229h273v-74h-273v-249h303v-74h-386zM326 752h-74l-158 97v21l114 0z" />
<glyph unicode="&#201;" horiz-adv-x="536" d="M85 700h381v-74h-298v-229h273v-74h-273v-249h303v-74h-386zM330 870h114v-21l-163 -97l-69 0z" />
<glyph unicode="&#202;" horiz-adv-x="536" d="M85 700h381v-74h-298v-229h273v-74h-273v-249h303v-74h-386zM242 870h60l127 -102v-21h-81l-60 49l-17 35l-19 -34l-64 -50h-79l0 22z" />
<glyph unicode="&#203;" horiz-adv-x="536" d="M85 700h381v-74h-298v-229h273v-74h-273v-249h303v-74h-386zM120 794q0 21 15 34q15 13 39 13q23 0 37.5 -13q14.5 -13 14.5 -34q0 -20 -14.5 -33q-14.5 -13 -37.5 -13q-24 0 -39 13q-15 13 -15 33zt0 0zM312 794q0 21 14.5 34q14.5 13 37.5 13q24 0 39 -13q15 -13 15 -34q0 -20 -15 -33q-15 -13 -39 -13q-23 0 -37.5 13t-14.5 33z" />
<glyph unicode="&#204;" horiz-adv-x="291" d="M104 700h83v-700h-83zM232 752h-74l-158 97v21l114 0z" />
<glyph unicode="&#205;" horiz-adv-x="291" d="M104 700h83v-700h-83zM180 870h114v-21l-163 -97l-69 0z" />
<glyph unicode="&#206;" horiz-adv-x="291" d="M104 700h83v-700h-83zM117 870h60l127 -102v-21h-81l-60 49l-17 35l-19 -34l-64 -50h-79l0 22z" />
<glyph unicode="&#207;" horiz-adv-x="291" d="M104 700h83v-700h-83zM-3 794q0 21 15 34q15 13 39 13q23 0 37.5 -13q14.5 -13 14.5 -34q0 -20 -14.5 -33q-14.5 -13 -37.5 -13q-24 0 -39 13q-15 13 -15 33zt0 0zM189 794q0 21 14.5 34q14.5 13 37.5 13q24 0 39 -13q15 -13 15 -34q0 -20 -15 -33q-15 -13 -39 -13q-23 0 -37.5 13t-14.5 33z" />
<glyph unicode="&#208;" horiz-adv-x="658" d="M-1 392h90v308q19 3 42.5 4.5q23.5 1.5 49 2q25.5 0.5 50 1q24.5 0.5 45.5 0.5q84 0 145.5 -26q61.5 -26 101.5 -72.5q40 -46.5 59.5 -111.5q19.5 -65 19.5 -143q0 -71 -18.5 -136.5q-18.5 -65.5 -58.5 -116q-40 -50.5 -104 -81q-64 -30.5 -155 -30.5q-16 0 -41.5 0.5q-25.5 0.5 -52.5 2q-27 1.5 -50 2.5q-23 1 -33 3l0 333h-90zM278 634q-13 0 -28.5 0q-15.5 0 -30.5 -1q-15 -1 -27.5 -2q-12.5 -1 -19.5 -2l0 -237h147v-60h-147v-263q5 -1 19 -1.5q14 -0.5 29 -1q15 -0.5 29 -1q14 -0.5 19 -0.5q70 0 117.5 24q47.5 24 76 64.5q28.5 40.5 40.5 93q12 52.5 12 108.5q0 49 -11 98.5q-11 49.5 -38 89.5q-27 40 -72.5 65.5t-114.5 25.5z" />
<glyph unicode="&#209;" horiz-adv-x="673" d="M211 458l-54 101h-4l10 -101v-458h-78v711h44l335 -467l52 -96h5l-11 96v456h78v-711h-44zM179 785q31 32 57.5 43.5q26.5 11.5 50.5 11.5q19 0 37 -5q18 -5 34.5 -11.5q16.5 -6.5 32.5 -11.5q16 -5 31 -5q26 0 50 21l25 -43q-27 -25 -51 -34.5q-24 -9.5 -45 -9.5q-19 0 -36 5q-17 5 -33.5 11.5q-16.5 6.5 -32.5 11.5q-16 5 -32 5q-16 0 -31.5 -6.5q-15.5 -6.5 -32.5 -23.5z" />
<glyph unicode="&#210;" horiz-adv-x="684" d="M56 350q0 175 74 268.5q74 93.5 211 93.5q74 0 128 -26q54 -26 89.5 -73.5q35.5 -47.5 52.5 -114q17 -66.5 17 -148.5q0 -175 -74.5 -268.5q-74.5 -93.5 -212.5 -93.5q-73 0 -126.5 26q-53.5 26 -89 73.5q-35.5 47.5 -52.5 114q-17 66.5 -17 148.5zt0 0zM144 350q0 -58 11.5 -110q11.5 -52 35.5 -91.5q24 -39.5 61.5 -63q37.5 -23.5 88.5 -23.5q93 0 146 70.5q53 70.5 53 217.5q0 57 -11.5 109.5q-11.5 52.5 -36 92q-24.5 39.5 -62 63q-37.5 23.5 -89.5 23.5q-92 0 -144.5 -70.5q-52.5 -70.5 -52.5 -217.5zt0 0zM410 752h-74l-158 97v21l114 0z" />
<glyph unicode="&#211;" horiz-adv-x="684" d="M56 350q0 175 74 268.5q74 93.5 211 93.5q74 0 128 -26q54 -26 89.5 -73.5q35.5 -47.5 52.5 -114q17 -66.5 17 -148.5q0 -175 -74.5 -268.5q-74.5 -93.5 -212.5 -93.5q-73 0 -126.5 26q-53.5 26 -89 73.5q-35.5 47.5 -52.5 114q-17 66.5 -17 148.5zt0 0zM144 350q0 -58 11.5 -110q11.5 -52 35.5 -91.5q24 -39.5 61.5 -63q37.5 -23.5 88.5 -23.5q93 0 146 70.5q53 70.5 53 217.5q0 57 -11.5 109.5q-11.5 52.5 -36 92q-24.5 39.5 -62 63q-37.5 23.5 -89.5 23.5q-92 0 -144.5 -70.5q-52.5 -70.5 -52.5 -217.5zt0 0zM415 870h114v-21l-163 -97l-69 0z" />
<glyph unicode="&#212;" horiz-adv-x="684" d="M56 350q0 175 74 268.5q74 93.5 211 93.5q74 0 128 -26q54 -26 89.5 -73.5q35.5 -47.5 52.5 -114q17 -66.5 17 -148.5q0 -175 -74.5 -268.5q-74.5 -93.5 -212.5 -93.5q-73 0 -126.5 26q-53.5 26 -89 73.5q-35.5 47.5 -52.5 114q-17 66.5 -17 148.5zt0 0zM144 350q0 -58 11.5 -110q11.5 -52 35.5 -91.5q24 -39.5 61.5 -63q37.5 -23.5 88.5 -23.5q93 0 146 70.5q53 70.5 53 217.5q0 57 -11.5 109.5q-11.5 52.5 -36 92q-24.5 39.5 -62 63q-37.5 23.5 -89.5 23.5q-92 0 -144.5 -70.5q-52.5 -70.5 -52.5 -217.5zt0 0zM312 870h60l127 -102v-21h-81l-60 49l-17 35l-19 -34l-64 -50h-79l0 22z" />
<glyph unicode="&#213;" horiz-adv-x="684" d="M56 350q0 175 74 268.5q74 93.5 211 93.5q74 0 128 -26q54 -26 89.5 -73.5q35.5 -47.5 52.5 -114q17 -66.5 17 -148.5q0 -175 -74.5 -268.5q-74.5 -93.5 -212.5 -93.5q-73 0 -126.5 26q-53.5 26 -89 73.5q-35.5 47.5 -52.5 114q-17 66.5 -17 148.5zt0 0zM144 350q0 -58 11.5 -110q11.5 -52 35.5 -91.5q24 -39.5 61.5 -63q37.5 -23.5 88.5 -23.5q93 0 146 70.5q53 70.5 53 217.5q0 57 -11.5 109.5q-11.5 52.5 -36 92q-24.5 39.5 -62 63q-37.5 23.5 -89.5 23.5q-92 0 -144.5 -70.5q-52.5 -70.5 -52.5 -217.5zt0 0zM182 785q31 32 57.5 43.5q26.5 11.5 50.5 11.5q19 0 37 -5q18 -5 34.5 -11.5q16.5 -6.5 32.5 -11.5q16 -5 31 -5q26 0 50 21l25 -43q-27 -25 -51 -34.5q-24 -9.5 -45 -9.5q-19 0 -36 5q-17 5 -33.5 11.5q-16.5 6.5 -32.5 11.5q-16 5 -32 5q-16 0 -31.5 -6.5q-15.5 -6.5 -32.5 -23.5z" />
<glyph unicode="&#214;" horiz-adv-x="684" d="M56 350q0 175 74 268.5q74 93.5 211 93.5q74 0 128 -26q54 -26 89.5 -73.5q35.5 -47.5 52.5 -114q17 -66.5 17 -148.5q0 -175 -74.5 -268.5q-74.5 -93.5 -212.5 -93.5q-73 0 -126.5 26q-53.5 26 -89 73.5q-35.5 47.5 -52.5 114q-17 66.5 -17 148.5zt0 0zM144 350q0 -58 11.5 -110q11.5 -52 35.5 -91.5q24 -39.5 61.5 -63q37.5 -23.5 88.5 -23.5q93 0 146 70.5q53 70.5 53 217.5q0 57 -11.5 109.5q-11.5 52.5 -36 92q-24.5 39.5 -62 63q-37.5 23.5 -89.5 23.5q-92 0 -144.5 -70.5q-52.5 -70.5 -52.5 -217.5zt0 0zM190 794q0 21 15 34q15 13 39 13q23 0 37.5 -13q14.5 -13 14.5 -34q0 -20 -14.5 -33q-14.5 -13 -37.5 -13q-24 0 -39 13q-15 13 -15 33zt0 0zM382 794q0 21 14.5 34q14.5 13 37.5 13q24 0 39 -13q15 -13 15 -34q0 -20 -15 -33q-15 -13 -39 -13q-23 0 -37.5 13t-14.5 33z" />
<glyph unicode="&#215;" horiz-adv-x="505" d="M127 517l126 -127l127 127l51 -53l-126 -126l126 -127l-51 -52l-127 128l-127 -128l-52 51l128 129l-126 125z" />
<glyph unicode="&#216;" horiz-adv-x="684" d="M122 91q-34 48 -50 113q-16 65 -16 146q0 175 74 268.5q74 93.5 211 93.5q57 0 101 -15q44 -15 78 -44l42 60l52 -35l-51 -72q33 -48 49 -112.5q16 -64.5 16 -143.5q0 -175 -74.5 -268.5q-74.5 -93.5 -212.5 -93.5q-107 0 -175 56h-39l-52 -20zM144 350q0 -51 8.5 -96q8.5 -45 26.5 -83l290 411q-23 26 -54.5 41q-31.5 15 -73.5 15q-92 0 -144.5 -70.5q-52.5 -70.5 -52.5 -217.5zt0 0zM540 350q0 48 -8.5 93q-8.5 45 -25.5 82l-290 -411q23 -25 54 -38.5q31 -13.5 71 -13.5q93 0 146 70.5t53 217.5z" />
<glyph unicode="&#217;" horiz-adv-x="652" d="M487 700h80v-467q0 -63 -16.5 -109q-16.5 -46 -47 -75.5q-30.5 -29.5 -73.5 -43.5q-43 -14 -95 -14q-124 0 -187 56q-63 56 -63 170v483h83v-444q0 -53 10.5 -89.5q10.5 -36.5 31.5 -59q21 -22.5 52.5 -32.5q31.5 -10 73.5 -10q81 0 116 44.5q35 44.5 35 146.5zM407 752h-74l-158 97v21l114 0z" />
<glyph unicode="&#218;" horiz-adv-x="652" d="M487 700h80v-467q0 -63 -16.5 -109q-16.5 -46 -47 -75.5q-30.5 -29.5 -73.5 -43.5q-43 -14 -95 -14q-124 0 -187 56q-63 56 -63 170v483h83v-444q0 -53 10.5 -89.5q10.5 -36.5 31.5 -59q21 -22.5 52.5 -32.5q31.5 -10 73.5 -10q81 0 116 44.5q35 44.5 35 146.5zM390 870h114v-21l-163 -97l-69 0z" />
<glyph unicode="&#219;" horiz-adv-x="652" d="M487 700h80v-467q0 -63 -16.5 -109q-16.5 -46 -47 -75.5q-30.5 -29.5 -73.5 -43.5q-43 -14 -95 -14q-124 0 -187 56q-63 56 -63 170v483h83v-444q0 -53 10.5 -89.5q10.5 -36.5 31.5 -59q21 -22.5 52.5 -32.5q31.5 -10 73.5 -10q81 0 116 44.5q35 44.5 35 146.5zM301 870h60l127 -102v-21h-81l-60 49l-17 35l-19 -34l-64 -50h-79l0 22z" />
<glyph unicode="&#220;" horiz-adv-x="652" d="M487 700h80v-467q0 -63 -16.5 -109q-16.5 -46 -47 -75.5q-30.5 -29.5 -73.5 -43.5q-43 -14 -95 -14q-124 0 -187 56q-63 56 -63 170v483h83v-444q0 -53 10.5 -89.5q10.5 -36.5 31.5 -59q21 -22.5 52.5 -32.5q31.5 -10 73.5 -10q81 0 116 44.5q35 44.5 35 146.5zM178 794q0 21 15 34q15 13 39 13q23 0 37.5 -13q14.5 -13 14.5 -34q0 -20 -14.5 -33q-14.5 -13 -37.5 -13q-24 0 -39 13q-15 13 -15 33zt0 0zM370 794q0 21 14.5 34q14.5 13 37.5 13q24 0 39 -13q15 -13 15 -34q0 -20 -15 -33q-15 -13 -39 -13q-23 0 -37.5 13t-14.5 33z" />
<glyph unicode="&#221;" horiz-adv-x="558" d="M239 278l-231 422h97l164 -306l17 -61h1l18 63l157 304h89l-229 -421v-279h-83zM355 870h114v-21l-163 -97l-69 0z" />
<glyph unicode="&#222;" horiz-adv-x="559" d="M85 700h83v-75q42 3 86 3q46 0 93.5 -9q47.5 -9 86.5 -33q39 -24 63.5 -66q24.5 -42 24.5 -107q0 -64 -23 -108q-23 -44 -61 -71.5q-38 -27.5 -87 -40q-49 -12.5 -101 -12.5q-5 0 -16.5 0q-11.5 0 -24 0.5q-12.5 0.5 -24.5 1.5q-12 1 -17 2l0 -185h-83zM256 556q-26 0 -50 -1q-24 -1 -38 -5l0 -290q5 -2 16 -2.5q11 -0.5 23 -1.5q12 -1 23 -1q11 0 16 0q34 0 67.5 6.5q33.5 6.5 60.5 24q27 17.5 43.5 48.5q16.5 31 16.5 79q0 41 -15.5 68.5q-15.5 27.5 -41 44q-25.5 16.5 -57.5 23.5t-64 7z" />
<glyph unicode="&#223;" horiz-adv-x="592" d="M384 559q0 17 -9.5 31.5q-9.5 14.5 -24.5 24.5q-15 10 -33 15.5q-18 5.5 -35 5.5q-28 0 -47.5 -7q-19.5 -7 -31.5 -23q-12 -16 -17.5 -42.5q-5.5 -26.5 -5.5 -65.5v-498h-80v430h-78v70h78v23q0 97 47.5 140q47.5 43 131.5 43q41 0 75 -10.5q34 -10.5 58.5 -30q24.5 -19.5 38 -46q13.5 -26.5 13.5 -59.5q0 -38 -19 -61q-19 -23 -41.5 -41q-22.5 -18 -41.5 -35q-19 -17 -19 -42q0 -22 15 -35q15 -13 38 -23q23 -10 49 -20.5q26 -10.5 49 -27.5q23 -17 38 -44.5q15 -27.5 15 -71.5q0 -32 -12 -62.5q-12 -30.5 -34.5 -54.5q-22.5 -24 -56.5 -39q-34 -15 -77 -15q-23 0 -40.5 1.5q-17.5 1.5 -32 5q-14.5 3.5 -27.5 8.5q-13 5 -26 13l23 65q12 -6 21 -11q9 -5 19.5 -8q10.5 -3 23.5 -4.5q13 -1.5 32 -1.5q21 0 40.5 7.5q19.5 7.5 34.5 20.5q15 13 23.5 31.5q8.5 18.5 8.5 40.5q0 30 -15 47.5q-15 17.5 -38 29.5q-23 12 -49 21.5q-26 9.5 -49 24q-23 14.5 -38 37q-15 22.5 -15 60.5q0 39 19 62.5q19 23.5 41.5 42q22.5 18.5 41.5 35.5t19 43z" />
<glyph unicode="&#224;" horiz-adv-x="496" d="M69 463q38 23 88.5 34q50.5 11 105.5 11q52 0 83.5 -14q31.5 -14 48 -36.5q16.5 -22.5 22 -49.5q5.5 -27 5.5 -54q0 -60 -3 -117q-3 -57 -3 -108q0 -37 3 -70q3 -33 11 -61l-59 0l-21 70h-5q-9 -14 -22.5 -27.5q-13.5 -13.5 -32.5 -24q-19 -10.5 -44 -17.5q-25 -7 -57 -7q-32 0 -59.5 10q-27.5 10 -47.5 28.5q-20 18.5 -31.5 44.5q-11.5 26 -11.5 59q0 44 18 73.5q18 29.5 50.5 47q32.5 17.5 78 25q45.5 7.5 100.5 7.5q14 0 27.5 0q13.5 0 27.5 -2q3 30 3 54q0 55 -22 77q-22 22 -80 22q-17 0 -36.5 -2.5q-19.5 -2.5 -40 -7q-20.5 -4.5 -39 -11q-18.5 -6.5 -32.5 -14.5zM211 62q28 0 50 7.5q22 7.5 38 19q16 11.5 26.5 25.5q10.5 14 15.5 27l0 83q-14 1 -28.5 1.5q-14.5 0.5 -28.5 0.5q-31 0 -60.5 -3.5q-29.5 -3.5 -52 -13q-22.5 -9.5 -36 -26q-13.5 -16.5 -13.5 -41.5q0 -35 25 -57.5q25 -22.5 64 -22.5zt0 0zM305 571h-45l-115 128v21l95 0z" />
<glyph unicode="&#225;" horiz-adv-x="496" d="M69 463q38 23 88.5 34q50.5 11 105.5 11q52 0 83.5 -14q31.5 -14 48 -36.5q16.5 -22.5 22 -49.5q5.5 -27 5.5 -54q0 -60 -3 -117q-3 -57 -3 -108q0 -37 3 -70q3 -33 11 -61l-59 0l-21 70h-5q-9 -14 -22.5 -27.5q-13.5 -13.5 -32.5 -24q-19 -10.5 -44 -17.5q-25 -7 -57 -7q-32 0 -59.5 10q-27.5 10 -47.5 28.5q-20 18.5 -31.5 44.5q-11.5 26 -11.5 59q0 44 18 73.5q18 29.5 50.5 47q32.5 17.5 78 25q45.5 7.5 100.5 7.5q14 0 27.5 0q13.5 0 27.5 -2q3 30 3 54q0 55 -22 77q-22 22 -80 22q-17 0 -36.5 -2.5q-19.5 -2.5 -40 -7q-20.5 -4.5 -39 -11q-18.5 -6.5 -32.5 -14.5zM211 62q28 0 50 7.5q22 7.5 38 19q16 11.5 26.5 25.5q10.5 14 15.5 27l0 83q-14 1 -28.5 1.5q-14.5 0.5 -28.5 0.5q-31 0 -60.5 -3.5q-29.5 -3.5 -52 -13q-22.5 -9.5 -36 -26q-13.5 -16.5 -13.5 -41.5q0 -35 25 -57.5q25 -22.5 64 -22.5zt0 0zM238 720h89v-21l-101 -128l-47 0z" />
<glyph unicode="&#226;" horiz-adv-x="496" d="M69 463q38 23 88.5 34q50.5 11 105.5 11q52 0 83.5 -14q31.5 -14 48 -36.5q16.5 -22.5 22 -49.5q5.5 -27 5.5 -54q0 -60 -3 -117q-3 -57 -3 -108q0 -37 3 -70q3 -33 11 -61l-59 0l-21 70h-5q-9 -14 -22.5 -27.5q-13.5 -13.5 -32.5 -24q-19 -10.5 -44 -17.5q-25 -7 -57 -7q-32 0 -59.5 10q-27.5 10 -47.5 28.5q-20 18.5 -31.5 44.5q-11.5 26 -11.5 59q0 44 18 73.5q18 29.5 50.5 47q32.5 17.5 78 25q45.5 7.5 100.5 7.5q14 0 27.5 0q13.5 0 27.5 -2q3 30 3 54q0 55 -22 77q-22 22 -80 22q-17 0 -36.5 -2.5q-19.5 -2.5 -40 -7q-20.5 -4.5 -39 -11q-18.5 -6.5 -32.5 -14.5zM211 62q28 0 50 7.5q22 7.5 38 19q16 11.5 26.5 25.5q10.5 14 15.5 27l0 83q-14 1 -28.5 1.5q-14.5 0.5 -28.5 0.5q-31 0 -60.5 -3.5q-29.5 -3.5 -52 -13q-22.5 -9.5 -36 -26q-13.5 -16.5 -13.5 -41.5q0 -35 25 -57.5q25 -22.5 64 -22.5zt0 0zM239 732h32l111 -182h-72l-39 66l-21 58l-22 -58l-45 -66l-67 0z" />
<glyph unicode="&#227;" horiz-adv-x="496" d="M69 463q38 23 88.5 34q50.5 11 105.5 11q52 0 83.5 -14q31.5 -14 48 -36.5q16.5 -22.5 22 -49.5q5.5 -27 5.5 -54q0 -60 -3 -117q-3 -57 -3 -108q0 -37 3 -70q3 -33 11 -61l-59 0l-21 70h-5q-9 -14 -22.5 -27.5q-13.5 -13.5 -32.5 -24q-19 -10.5 -44 -17.5q-25 -7 -57 -7q-32 0 -59.5 10q-27.5 10 -47.5 28.5q-20 18.5 -31.5 44.5q-11.5 26 -11.5 59q0 44 18 73.5q18 29.5 50.5 47q32.5 17.5 78 25q45.5 7.5 100.5 7.5q14 0 27.5 0q13.5 0 27.5 -2q3 30 3 54q0 55 -22 77q-22 22 -80 22q-17 0 -36.5 -2.5q-19.5 -2.5 -40 -7q-20.5 -4.5 -39 -11q-18.5 -6.5 -32.5 -14.5zM211 62q28 0 50 7.5q22 7.5 38 19q16 11.5 26.5 25.5q10.5 14 15.5 27l0 83q-14 1 -28.5 1.5q-14.5 0.5 -28.5 0.5q-31 0 -60.5 -3.5q-29.5 -3.5 -52 -13q-22.5 -9.5 -36 -26q-13.5 -16.5 -13.5 -41.5q0 -35 25 -57.5q25 -22.5 64 -22.5zt0 0zM109 656q29 33 53 45.5q24 12.5 44 12.5q17 0 31.5 -6.5q14.5 -6.5 28 -14q13.5 -7.5 26 -13.5q12.5 -6 26.5 -6q22 0 46 24l24 -43q-26 -29 -47.5 -39.5q-21.5 -10.5 -39.5 -10.5q-16 0 -30 6q-14 6 -27.5 13.5q-13.5 7.5 -27 14q-13.5 6.5 -27.5 6.5q-13 0 -26.5 -7q-13.5 -7 -30.5 -24z" />
<glyph unicode="&#228;" horiz-adv-x="496" d="M69 463q38 23 88.5 34q50.5 11 105.5 11q52 0 83.5 -14q31.5 -14 48 -36.5q16.5 -22.5 22 -49.5q5.5 -27 5.5 -54q0 -60 -3 -117q-3 -57 -3 -108q0 -37 3 -70q3 -33 11 -61l-59 0l-21 70h-5q-9 -14 -22.5 -27.5q-13.5 -13.5 -32.5 -24q-19 -10.5 -44 -17.5q-25 -7 -57 -7q-32 0 -59.5 10q-27.5 10 -47.5 28.5q-20 18.5 -31.5 44.5q-11.5 26 -11.5 59q0 44 18 73.5q18 29.5 50.5 47q32.5 17.5 78 25q45.5 7.5 100.5 7.5q14 0 27.5 0q13.5 0 27.5 -2q3 30 3 54q0 55 -22 77q-22 22 -80 22q-17 0 -36.5 -2.5q-19.5 -2.5 -40 -7q-20.5 -4.5 -39 -11q-18.5 -6.5 -32.5 -14.5zM211 62q28 0 50 7.5q22 7.5 38 19q16 11.5 26.5 25.5q10.5 14 15.5 27l0 83q-14 1 -28.5 1.5q-14.5 0.5 -28.5 0.5q-31 0 -60.5 -3.5q-29.5 -3.5 -52 -13q-22.5 -9.5 -36 -26q-13.5 -16.5 -13.5 -41.5q0 -35 25 -57.5q25 -22.5 64 -22.5zt0 0zM105 653q0 23 13.5 37q13.5 14 35.5 14q22 0 35.5 -14q13.5 -14 13.5 -37q0 -21 -13.5 -35q-13.5 -14 -35.5 -14q-22 0 -35.5 14q-13.5 14 -13.5 35zt0 0zM297 653q0 23 13.5 37q13.5 14 35.5 14q23 0 36.5 -14q13.5 -14 13.5 -37q0 -21 -13.5 -35q-13.5 -14 -36.5 -14q-22 0 -35.5 14t-13.5 35z" />
<glyph unicode="&#229;" horiz-adv-x="496" d="M69 463q38 23 88.5 34q50.5 11 105.5 11q52 0 83.5 -14q31.5 -14 48 -36.5q16.5 -22.5 22 -49.5q5.5 -27 5.5 -54q0 -60 -3 -117q-3 -57 -3 -108q0 -37 3 -70q3 -33 11 -61l-59 0l-21 70h-5q-9 -14 -22.5 -27.5q-13.5 -13.5 -32.5 -24q-19 -10.5 -44 -17.5q-25 -7 -57 -7q-32 0 -59.5 10q-27.5 10 -47.5 28.5q-20 18.5 -31.5 44.5q-11.5 26 -11.5 59q0 44 18 73.5q18 29.5 50.5 47q32.5 17.5 78 25q45.5 7.5 100.5 7.5q14 0 27.5 0q13.5 0 27.5 -2q3 30 3 54q0 55 -22 77q-22 22 -80 22q-17 0 -36.5 -2.5q-19.5 -2.5 -40 -7q-20.5 -4.5 -39 -11q-18.5 -6.5 -32.5 -14.5zM211 62q28 0 50 7.5q22 7.5 38 19q16 11.5 26.5 25.5q10.5 14 15.5 27l0 83q-14 1 -28.5 1.5q-14.5 0.5 -28.5 0.5q-31 0 -60.5 -3.5q-29.5 -3.5 -52 -13q-22.5 -9.5 -36 -26q-13.5 -16.5 -13.5 -41.5q0 -35 25 -57.5q25 -22.5 64 -22.5zt0 0zM152 643q0 42 26.5 66.5q26.5 24.5 70.5 24.5q42 0 70 -22q28 -22 28 -69q0 -39 -28 -64.5q-28 -25.5 -70 -25.5q-42 0 -69.5 23.5q-27.5 23.5 -27.5 66.5zt0 0zM206 643q0 -20 13 -31q13 -11 30 -11q19 0 31.5 10q12.5 10 12.5 32q0 22 -13.5 32.5q-13.5 10.5 -30.5 10.5q-17 0 -30 -10t-13 -33z" />
<glyph unicode="&#230;" horiz-adv-x="796" d="M211 62q28 0 50 7.5q22 7.5 38 19q16 11.5 26.5 25.5q10.5 14 15.5 27l0 83q-14 1 -28.5 1.5q-14.5 0.5 -28.5 0.5q-31 0 -60.5 -3.5q-29.5 -3.5 -52 -13q-22.5 -9.5 -36 -26q-13.5 -16.5 -13.5 -41.5q0 -35 25 -57.5q25 -22.5 64 -22.5zt0 0zM367 84q-13 -18 -30 -34.5q-17 -16.5 -38.5 -29q-21.5 -12.5 -49 -20.5q-27.5 -8 -60.5 -8q-32 0 -59.5 10q-27.5 10 -47.5 28.5q-20 18.5 -31.5 44.5q-11.5 26 -11.5 59q0 44 18 73.5q18 29.5 50.5 47q32.5 17.5 78 25q45.5 7.5 100.5 7.5q14 0 27.5 0q13.5 0 27.5 -2q1 15 2 28.5q1 13.5 1 25.5q0 55 -22 77.5q-22 22.5 -80 21.5q-17 0 -36.5 -2.5q-19.5 -2.5 -40 -7q-20.5 -4.5 -39 -11q-18.5 -6.5 -32.5 -14.5l-25 60q38 23 88.5 34q50.5 11 105.5 11q105 0 136 -65q26 36 70 52.5q44 16.5 88 16.5q34 0 68 -7.5q34 -7.5 61 -29q27 -21.5 44 -60.5q17 -39 17 -102q0 -16 -1.5 -33.5q-1.5 -17.5 -3.5 -37.5l-323 0q0 -87 36.5 -135.5q36.5 -48.5 124.5 -48.5q35 0 68.5 12.5q33.5 12.5 51.5 27.5l30 -58q-30 -24 -75.5 -38q-45.5 -14 -96.5 -14q-61 0 -110.5 25q-49.5 25 -73.5 71zM558 442q-59 0 -95 -31q-36 -31 -42 -106l248 0v12q0 68 -30.5 96.5t-80.5 28.5z" />
<glyph unicode="&#231;" horiz-adv-x="451" d="M418 33q-49 -35 -121 -43l-18 -33q42 -8 60.5 -26q18.5 -18 18.5 -49q0 -39 -32 -64.5q-32 -25.5 -90 -25.5q-11 0 -22 1q-11 1 -23 3l9 39q6 -1 11 -1q5 0 10 0q22 0 34.5 4q12.5 4 19 9.5q6.5 5.5 8 12.5q1.5 7 1.5 13q0 28 -86 37l42 79q-52 3 -88 23q-36 20 -59 54q-23 34 -33.5 80.5q-10.5 46.5 -10.5 103.5q0 127 56 194.5q56 67.5 161 67.5q48 0 81.5 -7.5q33.5 -7.5 60.5 -21.5l-23 -69q-23 13 -51 20.5q-28 7.5 -60 7.5q-142 0 -142 -192q0 -38 7.5 -72.5q7.5 -34.5 25 -61q17.5 -26.5 46 -42q28.5 -15.5 70.5 -15.5q36 0 64.5 10.5q28.5 10.5 46.5 24.5z" />
<glyph unicode="&#232;" horiz-adv-x="508" d="M442 40q-30 -24 -75.5 -38q-45.5 -14 -96.5 -14q-57 0 -99 18.5q-42 18.5 -69 53q-27 34.5 -40 82.5q-13 48 -13 108q0 128 57 195q57 67 163 67q34 0 68 -7.5q34 -7.5 61 -28.5q27 -21 44 -59.5q17 -38.5 17 -101.5q0 -33 -6 -73l-321 0q0 -44 9 -78q9 -34 28 -57.5q19 -23.5 49.5 -36q30.5 -12.5 74.5 -12.5q34 0 68 12q34 12 51 28zM270 442q-59 0 -94.5 -31q-35.5 -31 -42.5 -106l248 0q0 76 -29 106.5q-29 30.5 -82 30.5zt0 0zM330 571h-45l-115 128v21l95 0z" />
<glyph unicode="&#233;" horiz-adv-x="508" d="M442 40q-30 -24 -75.5 -38q-45.5 -14 -96.5 -14q-57 0 -99 18.5q-42 18.5 -69 53q-27 34.5 -40 82.5q-13 48 -13 108q0 128 57 195q57 67 163 67q34 0 68 -7.5q34 -7.5 61 -28.5q27 -21 44 -59.5q17 -38.5 17 -101.5q0 -33 -6 -73l-321 0q0 -44 9 -78q9 -34 28 -57.5q19 -23.5 49.5 -36q30.5 -12.5 74.5 -12.5q34 0 68 12q34 12 51 28zM270 442q-59 0 -94.5 -31q-35.5 -31 -42.5 -106l248 0q0 76 -29 106.5q-29 30.5 -82 30.5zt0 0zM291 720h89v-21l-101 -128l-47 0z" />
<glyph unicode="&#234;" horiz-adv-x="508" d="M442 40q-30 -24 -75.5 -38q-45.5 -14 -96.5 -14q-57 0 -99 18.5q-42 18.5 -69 53q-27 34.5 -40 82.5q-13 48 -13 108q0 128 57 195q57 67 163 67q34 0 68 -7.5q34 -7.5 61 -28.5q27 -21 44 -59.5q17 -38.5 17 -101.5q0 -33 -6 -73l-321 0q0 -44 9 -78q9 -34 28 -57.5q19 -23.5 49.5 -36q30.5 -12.5 74.5 -12.5q34 0 68 12q34 12 51 28zM270 442q-59 0 -94.5 -31q-35.5 -31 -42.5 -106l248 0q0 76 -29 106.5q-29 30.5 -82 30.5zt0 0zM245 732h32l111 -182h-72l-39 66l-21 58l-22 -58l-45 -66l-67 0z" />
<glyph unicode="&#235;" horiz-adv-x="508" d="M442 40q-30 -24 -75.5 -38q-45.5 -14 -96.5 -14q-57 0 -99 18.5q-42 18.5 -69 53q-27 34.5 -40 82.5q-13 48 -13 108q0 128 57 195q57 67 163 67q34 0 68 -7.5q34 -7.5 61 -28.5q27 -21 44 -59.5q17 -38.5 17 -101.5q0 -33 -6 -73l-321 0q0 -44 9 -78q9 -34 28 -57.5q19 -23.5 49.5 -36q30.5 -12.5 74.5 -12.5q34 0 68 12q34 12 51 28zM270 442q-59 0 -94.5 -31q-35.5 -31 -42.5 -106l248 0q0 76 -29 106.5q-29 30.5 -82 30.5zt0 0zM119 653q0 23 13.5 37q13.5 14 35.5 14q22 0 35.5 -14q13.5 -14 13.5 -37q0 -21 -13.5 -35q-13.5 -14 -35.5 -14q-22 0 -35.5 14q-13.5 14 -13.5 35zt0 0zM311 653q0 23 13.5 37q13.5 14 35.5 14q23 0 36.5 -14q13.5 -14 13.5 -37q0 -21 -13.5 -35q-13.5 -14 -36.5 -14q-22 0 -35.5 14t-13.5 35z" />
<glyph unicode="&#236;" horiz-adv-x="268" d="M94 500h80v-500h-80zM171 571h-45l-115 128v21l95 0z" />
<glyph unicode="&#237;" horiz-adv-x="268" d="M94 500h80v-500h-80zM154 720h89v-21l-101 -128l-47 0z" />
<glyph unicode="&#238;" horiz-adv-x="268" d="M94 500h80v-500h-80zM120 732h32l111 -182h-72l-39 66l-21 58l-22 -58l-45 -66l-67 0z" />
<glyph unicode="&#239;" horiz-adv-x="268" d="M94 500h80v-500h-80zM-13 653q0 23 13.5 37q13.5 14 35.5 14q22 0 35.5 -14q13.5 -14 13.5 -37q0 -21 -13.5 -35q-13.5 -14 -35.5 -14q-22 0 -35.5 14q-13.5 14 -13.5 35zt0 0zM179 653q0 23 13.5 37q13.5 14 35.5 14q23 0 36.5 -14q13.5 -14 13.5 -37q0 -21 -13.5 -35q-13.5 -14 -36.5 -14q-22 0 -35.5 14t-13.5 35z" />
<glyph unicode="&#240;" horiz-adv-x="561" d="M220 596l57 31q-38 23 -76 32l35 54q18 -7 46 -19q28 -12 58 -33l68 37l26 -45l-50 -27q24 -23 46 -53.5q22 -30.5 39 -71q17 -40.5 27 -91.5q10 -51 10 -115q0 -81 -18 -139q-18 -58 -48.5 -95.5q-30.5 -37.5 -71 -55q-40.5 -17.5 -86.5 -17.5q-61 0 -104 21q-43 21 -70 57q-27 36 -39.5 83.5q-12.5 47.5 -12.5 101.5q0 52 14.5 99q14.5 47 43 82.5q28.5 35.5 70 56.5q41.5 21 96.5 21q45 0 79 -14q34 -14 48 -32q-11 37 -33 70q-22 33 -51 59l-76 -41zM139 250q0 -98 41 -145q41 -47 106 -47q30 0 55.5 13q25.5 13 44 41q18.5 28 29.5 72q11 44 11 106q0 10 -0.5 22.5q-0.5 12.5 -1 25q-0.5 12.5 -2 24q-1.5 11.5 -3.5 19.5q-8 14 -22.5 25q-14.5 11 -32 18.5q-17.5 7.5 -37.5 11.5q-20 4 -39 4q-39 0 -67.5 -15q-28.5 -15 -46.5 -40.5q-18 -25.5 -26.5 -60t-8.5 -74.5z" />
<glyph unicode="&#241;" horiz-adv-x="547" d="M398 0v285q0 78 -22.5 117.5q-22.5 39.5 -82.5 39.5q-53 0 -87.5 -28.5q-34.5 -28.5 -48.5 -71.5l0 -342h-80v500h56l15 -61h4q24 32 64.5 52.5q40.5 20.5 96.5 20.5q41 0 72 -9.5q31 -9.5 51.5 -33.5q20.5 -24 31 -64.5q10.5 -40.5 10.5 -102.5v-302zM134 656q29 33 53 45.5q24 12.5 44 12.5q17 0 31.5 -6.5q14.5 -6.5 28 -14q13.5 -7.5 26 -13.5q12.5 -6 26.5 -6q22 0 46 24l24 -43q-26 -29 -47.5 -39.5q-21.5 -10.5 -39.5 -10.5q-16 0 -30 6q-14 6 -27.5 13.5q-13.5 7.5 -27 14q-13.5 6.5 -27.5 6.5q-13 0 -26.5 -7q-13.5 -7 -30.5 -24z" />
<glyph unicode="&#242;" horiz-adv-x="536" d="M49 250q0 127 56.5 194.5q56.5 67.5 162.5 67.5q56 0 97.5 -18.5q41.5 -18.5 68.5 -53q27 -34.5 40 -83q13 -48.5 13 -107.5q0 -127 -56.5 -194.5q-56.5 -67.5 -162.5 -67.5q-56 0 -97.5 18.5q-41.5 18.5 -68.5 53q-27 34.5 -40 83q-13 48.5 -13 107.5zt0 0zM132 250q0 -38 7.5 -73q7.5 -35 23.5 -61q16 -26 42 -42q26 -16 63 -16q136 -1 136 192q0 39 -7.5 74q-7.5 35 -23.5 61q-16 26 -42 41.5q-26 15.5 -63 15.5q-136 1 -136 -192zt0 0zM317 571h-45l-115 128v21l95 0z" />
<glyph unicode="&#243;" horiz-adv-x="536" d="M49 250q0 127 56.5 194.5q56.5 67.5 162.5 67.5q56 0 97.5 -18.5q41.5 -18.5 68.5 -53q27 -34.5 40 -83q13 -48.5 13 -107.5q0 -127 -56.5 -194.5q-56.5 -67.5 -162.5 -67.5q-56 0 -97.5 18.5q-41.5 18.5 -68.5 53q-27 34.5 -40 83q-13 48.5 -13 107.5zt0 0zM132 250q0 -38 7.5 -73q7.5 -35 23.5 -61q16 -26 42 -42q26 -16 63 -16q136 -1 136 192q0 39 -7.5 74q-7.5 35 -23.5 61q-16 26 -42 41.5q-26 15.5 -63 15.5q-136 1 -136 -192zt0 0zM286 720h89v-21l-101 -128l-47 0z" />
<glyph unicode="&#244;" horiz-adv-x="536" d="M49 250q0 127 56.5 194.5q56.5 67.5 162.5 67.5q56 0 97.5 -18.5q41.5 -18.5 68.5 -53q27 -34.5 40 -83q13 -48.5 13 -107.5q0 -127 -56.5 -194.5q-56.5 -67.5 -162.5 -67.5q-56 0 -97.5 18.5q-41.5 18.5 -68.5 53q-27 34.5 -40 83q-13 48.5 -13 107.5zt0 0zM132 250q0 -38 7.5 -73q7.5 -35 23.5 -61q16 -26 42 -42q26 -16 63 -16q136 -1 136 192q0 39 -7.5 74q-7.5 35 -23.5 61q-16 26 -42 41.5q-26 15.5 -63 15.5q-136 1 -136 -192zt0 0zM258 732h32l111 -182h-72l-39 66l-21 58l-22 -58l-45 -66l-67 0z" />
<glyph unicode="&#245;" horiz-adv-x="536" d="M49 250q0 127 56.5 194.5q56.5 67.5 162.5 67.5q56 0 97.5 -18.5q41.5 -18.5 68.5 -53q27 -34.5 40 -83q13 -48.5 13 -107.5q0 -127 -56.5 -194.5q-56.5 -67.5 -162.5 -67.5q-56 0 -97.5 18.5q-41.5 18.5 -68.5 53q-27 34.5 -40 83q-13 48.5 -13 107.5zt0 0zM132 250q0 -38 7.5 -73q7.5 -35 23.5 -61q16 -26 42 -42q26 -16 63 -16q136 -1 136 192q0 39 -7.5 74q-7.5 35 -23.5 61q-16 26 -42 41.5q-26 15.5 -63 15.5q-136 1 -136 -192zt0 0zM129 656q29 33 53 45.5q24 12.5 44 12.5q17 0 31.5 -6.5q14.5 -6.5 28 -14q13.5 -7.5 26 -13.5q12.5 -6 26.5 -6q22 0 46 24l24 -43q-26 -29 -47.5 -39.5q-21.5 -10.5 -39.5 -10.5q-16 0 -30 6q-14 6 -27.5 13.5q-13.5 7.5 -27 14q-13.5 6.5 -27.5 6.5q-13 0 -26.5 -7q-13.5 -7 -30.5 -24z" />
<glyph unicode="&#246;" horiz-adv-x="536" d="M49 250q0 127 56.5 194.5q56.5 67.5 162.5 67.5q56 0 97.5 -18.5q41.5 -18.5 68.5 -53q27 -34.5 40 -83q13 -48.5 13 -107.5q0 -127 -56.5 -194.5q-56.5 -67.5 -162.5 -67.5q-56 0 -97.5 18.5q-41.5 18.5 -68.5 53q-27 34.5 -40 83q-13 48.5 -13 107.5zt0 0zM132 250q0 -38 7.5 -73q7.5 -35 23.5 -61q16 -26 42 -42q26 -16 63 -16q136 -1 136 192q0 39 -7.5 74q-7.5 35 -23.5 61q-16 26 -42 41.5q-26 15.5 -63 15.5q-136 1 -136 -192zt0 0zM124 653q0 23 13.5 37q13.5 14 35.5 14q22 0 35.5 -14q13.5 -14 13.5 -37q0 -21 -13.5 -35q-13.5 -14 -35.5 -14q-22 0 -35.5 14q-13.5 14 -13.5 35zt0 0zM316 653q0 23 13.5 37q13.5 14 35.5 14q23 0 36.5 -14q13.5 -14 13.5 -37q0 -21 -13.5 -35q-13.5 -14 -36.5 -14q-22 0 -35.5 14t-13.5 35z" />
<glyph unicode="&#247;" horiz-adv-x="505" d="M40 374h424v-72h-424zM194 525q0 27 15.5 42.5q15.5 15.5 41.5 15.5q27 0 43 -15.5q16 -15.5 16 -42.5q0 -26 -16 -42q-16 -16 -43 -16q-26 0 -41.5 16q-15.5 16 -15.5 42zt0 0zM194 150q0 27 15.5 42.5q15.5 15.5 41.5 15.5q27 0 43 -15.5q16 -15.5 16 -42.5q0 -26 -16 -42q-16 -16 -43 -16q-26 0 -41.5 16t-15.5 42z" />
<glyph unicode="&#248;" horiz-adv-x="536" d="M49 250q0 127 56.5 194.5q56.5 67.5 162.5 67.5q73 0 122 -32l26 35l50 -37l-29 -42q26 -34 38 -81q12 -47 12 -105q0 -127 -56.5 -194.5q-56.5 -67.5 -162.5 -67.5q-78 0 -128 35l-27 -37l-52 38l33 46q-23 34 -34 79.5q-11 45.5 -11 100.5zt0 0zM404 250q0 32 -5 61.5q-5 29.5 -16 53.5l-199 -277q16 -13 36.5 -21.5q20.5 -8.5 47.5 -8.5q136 -1 136 192zt0 0zM132 250q0 -30 4.5 -58q4.5 -28 13.5 -51l197 274q-15 12 -34.5 19.5q-19.5 7.5 -44.5 7.5q-136 1 -136 -192z" />
<glyph unicode="&#249;" horiz-adv-x="539" d="M149 500v-285q0 -39 4.5 -68.5q4.5 -29.5 15.5 -49q11 -19.5 30 -29.5q19 -10 48 -10q27 0 48 8.5q21 8.5 37.5 23.5q16.5 15 29 34.5q12.5 19.5 20.5 41.5l0 334h80v-358q0 -36 2.5 -74.5q2.5 -38.5 8.5 -67.5l-55 0l-20 79h-5q-23 -39 -62 -65q-39 -26 -99 -26q-40 0 -70.5 9.5q-30.5 9.5 -51 33.5q-20.5 24 -31 64.5q-10.5 40.5 -10.5 102.5v302zM308 571h-45l-115 128v21l95 0z" />
<glyph unicode="&#250;" horiz-adv-x="539" d="M149 500v-285q0 -39 4.5 -68.5q4.5 -29.5 15.5 -49q11 -19.5 30 -29.5q19 -10 48 -10q27 0 48 8.5q21 8.5 37.5 23.5q16.5 15 29 34.5q12.5 19.5 20.5 41.5l0 334h80v-358q0 -36 2.5 -74.5q2.5 -38.5 8.5 -67.5l-55 0l-20 79h-5q-23 -39 -62 -65q-39 -26 -99 -26q-40 0 -70.5 9.5q-30.5 9.5 -51 33.5q-20.5 24 -31 64.5q-10.5 40.5 -10.5 102.5v302zM285 720h89v-21l-101 -128l-47 0z" />
<glyph unicode="&#251;" horiz-adv-x="539" d="M149 500v-285q0 -39 4.5 -68.5q4.5 -29.5 15.5 -49q11 -19.5 30 -29.5q19 -10 48 -10q27 0 48 8.5q21 8.5 37.5 23.5q16.5 15 29 34.5q12.5 19.5 20.5 41.5l0 334h80v-358q0 -36 2.5 -74.5q2.5 -38.5 8.5 -67.5l-55 0l-20 79h-5q-23 -39 -62 -65q-39 -26 -99 -26q-40 0 -70.5 9.5q-30.5 9.5 -51 33.5q-20.5 24 -31 64.5q-10.5 40.5 -10.5 102.5v302zM260 732h32l111 -182h-72l-39 66l-21 58l-22 -58l-45 -66l-67 0z" />
<glyph unicode="&#252;" horiz-adv-x="539" d="M149 500v-285q0 -39 4.5 -68.5q4.5 -29.5 15.5 -49q11 -19.5 30 -29.5q19 -10 48 -10q27 0 48 8.5q21 8.5 37.5 23.5q16.5 15 29 34.5q12.5 19.5 20.5 41.5l0 334h80v-358q0 -36 2.5 -74.5q2.5 -38.5 8.5 -67.5l-55 0l-20 79h-5q-23 -39 -62 -65q-39 -26 -99 -26q-40 0 -70.5 9.5q-30.5 9.5 -51 33.5q-20.5 24 -31 64.5q-10.5 40.5 -10.5 102.5v302zM125 653q0 23 13.5 37q13.5 14 35.5 14q22 0 35.5 -14q13.5 -14 13.5 -37q0 -21 -13.5 -35q-13.5 -14 -35.5 -14q-22 0 -35.5 14q-13.5 14 -13.5 35zt0 0zM317 653q0 23 13.5 37q13.5 14 35.5 14q23 0 36.5 -14q13.5 -14 13.5 -37q0 -21 -13.5 -35q-13.5 -14 -36.5 -14q-22 0 -35.5 14t-13.5 35z" />
<glyph unicode="&#253;" horiz-adv-x="466" d="M224 176l28 -96h5l22 97l97 323h81l-148 -449q-17 -49 -33.5 -95q-16.5 -46 -36.5 -82q-20 -36 -45 -57.5q-25 -21.5 -58 -21.5q-36 0 -59 10l14 69q13 -5 25 -5q28 0 54 29.5q26 29.5 43 101.5l-201 500h92zM277 720h89v-21l-101 -128l-47 0z" />
<glyph unicode="&#254;" horiz-adv-x="541" d="M77 700h80v-250h4q20 29 53 45.5q33 16.5 80 16.5q100 0 149 -59q49 -59 49 -193q0 -63 -16.5 -113.5q-16.5 -50.5 -46.5 -85.5q-30 -35 -72.5 -54q-42.5 -19 -94.5 -19q-37 0 -58.5 4.5q-21.5 4.5 -46.5 15.5l0 -208h-80zM279 442q-98 1 -122 -107l0 -249q18 -14 41 -21q23 -7 61 -7q69 0 109.5 51.5q40.5 51.5 40.5 151.5q0 41 -7 74.5q-7 33.5 -22.5 57q-15.5 23.5 -40 36.5t-60.5 13z" />
<glyph unicode="&#255;" horiz-adv-x="466" d="M224 176l28 -96h5l22 97l97 323h81l-148 -449q-17 -49 -33.5 -95q-16.5 -46 -36.5 -82q-20 -36 -45 -57.5q-25 -21.5 -58 -21.5q-36 0 -59 10l14 69q13 -5 25 -5q28 0 54 29.5q26 29.5 43 101.5l-201 500h92zM89 653q0 23 13.5 37q13.5 14 35.5 14q22 0 35.5 -14q13.5 -14 13.5 -37q0 -21 -13.5 -35q-13.5 -14 -35.5 -14q-22 0 -35.5 14q-13.5 14 -13.5 35zt0 0zM281 653q0 23 13.5 37q13.5 14 35.5 14q23 0 36.5 -14q13.5 -14 13.5 -37q0 -21 -13.5 -35q-13.5 -14 -36.5 -14q-22 0 -35.5 14t-13.5 35z" />
<glyph unicode="&#256;" horiz-adv-x="585" d="M418 194h-258l-70 -194h-82l265 711h38l266 -711h-87zM187 266h206l-78 213l-25 106h-1l-25 -108zM133 843h316v-62l-316 0z" />
<glyph unicode="&#257;" horiz-adv-x="496" d="M69 463q38 23 88.5 34q50.5 11 105.5 11q52 0 83.5 -14q31.5 -14 48 -36.5q16.5 -22.5 22 -49.5q5.5 -27 5.5 -54q0 -60 -3 -117q-3 -57 -3 -108q0 -37 3 -70q3 -33 11 -61l-59 0l-21 70h-5q-9 -14 -22.5 -27.5q-13.5 -13.5 -32.5 -24q-19 -10.5 -44 -17.5q-25 -7 -57 -7q-32 0 -59.5 10q-27.5 10 -47.5 28.5q-20 18.5 -31.5 44.5q-11.5 26 -11.5 59q0 44 18 73.5q18 29.5 50.5 47q32.5 17.5 78 25q45.5 7.5 100.5 7.5q14 0 27.5 0q13.5 0 27.5 -2q3 30 3 54q0 55 -22 77q-22 22 -80 22q-17 0 -36.5 -2.5q-19.5 -2.5 -40 -7q-20.5 -4.5 -39 -11q-18.5 -6.5 -32.5 -14.5zM211 62q28 0 50 7.5q22 7.5 38 19q16 11.5 26.5 25.5q10.5 14 15.5 27l0 83q-14 1 -28.5 1.5q-14.5 0.5 -28.5 0.5q-31 0 -60.5 -3.5q-29.5 -3.5 -52 -13q-22.5 -9.5 -36 -26q-13.5 -16.5 -13.5 -41.5q0 -35 25 -57.5q25 -22.5 64 -22.5zt0 0zM101 643h296v-62l-296 0z" />
<glyph unicode="&#258;" horiz-adv-x="585" d="M418 194h-258l-70 -194h-82l265 711h38l266 -711h-87zM187 266h206l-78 213l-25 106h-1l-25 -108zM164 871q17 -34 52 -52.5q35 -18.5 82 -18.5q48 0 81 21q33 21 47 50l40 -19q-9 -29 -25.5 -51.5q-16.5 -22.5 -39 -38.5q-22.5 -16 -49.5 -24q-27 -8 -55 -8q-27 0 -53.5 7q-26.5 7 -49.5 21q-23 14 -42 36.5q-19 22.5 -31 52.5z" />
<glyph unicode="&#259;" horiz-adv-x="496" d="M69 463q38 23 88.5 34q50.5 11 105.5 11q52 0 83.5 -14q31.5 -14 48 -36.5q16.5 -22.5 22 -49.5q5.5 -27 5.5 -54q0 -60 -3 -117q-3 -57 -3 -108q0 -37 3 -70q3 -33 11 -61l-59 0l-21 70h-5q-9 -14 -22.5 -27.5q-13.5 -13.5 -32.5 -24q-19 -10.5 -44 -17.5q-25 -7 -57 -7q-32 0 -59.5 10q-27.5 10 -47.5 28.5q-20 18.5 -31.5 44.5q-11.5 26 -11.5 59q0 44 18 73.5q18 29.5 50.5 47q32.5 17.5 78 25q45.5 7.5 100.5 7.5q14 0 27.5 0q13.5 0 27.5 -2q3 30 3 54q0 55 -22 77q-22 22 -80 22q-17 0 -36.5 -2.5q-19.5 -2.5 -40 -7q-20.5 -4.5 -39 -11q-18.5 -6.5 -32.5 -14.5zM211 62q28 0 50 7.5q22 7.5 38 19q16 11.5 26.5 25.5q10.5 14 15.5 27l0 83q-14 1 -28.5 1.5q-14.5 0.5 -28.5 0.5q-31 0 -60.5 -3.5q-29.5 -3.5 -52 -13q-22.5 -9.5 -36 -26q-13.5 -16.5 -13.5 -41.5q0 -35 25 -57.5q25 -22.5 64 -22.5zt0 0zM141 720q18 -36 48 -56.5q30 -20.5 64 -20.5q34 0 61.5 20q27.5 20 44.5 57l42 -18q-3 -24 -15.5 -47.5q-12.5 -23.5 -32 -41.5q-19.5 -18 -45.5 -29q-26 -11 -56 -11q-28 0 -53 8.5q-25 8.5 -45.5 25q-20.5 16.5 -35.5 39q-15 22.5 -22 51.5z" />
<glyph unicode="&#260;" horiz-adv-x="585" d="M418 194h-258l-70 -194h-82l265 711h38l266 -711h-22q-26 -16 -41.5 -37.5q-15.5 -21.5 -15.5 -50.5q0 -20 13.5 -35q13.5 -15 38.5 -15q19 0 40 9l11 -42q-15 -12 -40 -18q-25 -6 -46 -6q-44 0 -71.5 23.5q-27.5 23.5 -27.5 64.5q0 35 21.5 62.5q21.5 27.5 59.5 44.5l-7 0zM187 266h206l-78 213l-25 106h-1l-25 -108z" />
<glyph unicode="&#261;" horiz-adv-x="496" d="M69 463q38 23 88.5 34q50.5 11 105.5 11q52 0 83.5 -14q31.5 -14 48 -36.5q16.5 -22.5 22 -49.5q5.5 -27 5.5 -54q0 -60 -3 -117q-3 -57 -3 -108q0 -37 3 -70q3 -33 11 -61l-23 0q-25 -16 -39 -37.5q-14 -21.5 -14 -47.5q0 -20 13 -35.5q13 -15.5 38 -15.5q19 0 40 10l11 -43q-15 -12 -40 -18q-25 -6 -46 -6q-45 0 -72 24q-27 24 -27 65q0 39 26 67.5q26 28.5 71 45.5l-18 61h-5q-9 -14 -22.5 -27.5q-13.5 -13.5 -32.5 -24q-19 -10.5 -44 -17.5q-25 -7 -57 -7q-32 0 -59.5 10q-27.5 10 -47.5 28.5q-20 18.5 -31.5 44.5q-11.5 26 -11.5 59q0 44 18 73.5q18 29.5 50.5 47q32.5 17.5 78 25q45.5 7.5 100.5 7.5q14 0 27.5 0q13.5 0 27.5 -2q3 30 3 54q0 55 -22 77q-22 22 -80 22q-17 0 -36.5 -2q-19.5 -2 -40 -6.5q-20.5 -4.5 -39 -10.5q-18.5 -6 -32.5 -14zM211 62q28 0 50 7.5q22 7.5 38 19q16 11.5 26.5 25.5q10.5 14 15.5 27l0 83q-14 1 -28.5 1.5q-14.5 0.5 -28.5 0.5q-31 0 -60.5 -3.5q-29.5 -3.5 -52 -13q-22.5 -9.5 -36 -26q-13.5 -16.5 -13.5 -41.5q0 -35 25 -57.5t64 -22.5z" />
<glyph unicode="&#262;" horiz-adv-x="571" d="M533 29q-30 -23 -76 -32q-46 -9 -98 -9q-63 0 -118 21.5q-55 21.5 -96 65.5q-41 44 -65 112.5q-24 68.5 -24 162.5q0 98 26.5 166.5q26.5 68.5 70 112q43.5 43.5 97.5 63.5q54 20 110 20q60 0 98 -6.5q38 -6.5 65 -17.5l-20 -73q-48 23 -137 23q-41 0 -81 -15q-40 -15 -71.5 -49q-31.5 -34 -50.5 -89q-19 -55 -19 -135q0 -72 18 -126q18 -54 49.5 -90q31.5 -36 74 -54q42.5 -18 92.5 -18q45 0 78.5 9q33.5 9 56.5 23zM417 870h114v-21l-163 -97l-69 0z" />
<glyph unicode="&#263;" horiz-adv-x="451" d="M418 33q-30 -22 -71 -33.5q-41 -11.5 -86 -11.5q-58 0 -98 18.5q-40 18.5 -65.5 53q-25.5 34.5 -37 83q-11.5 48.5 -11.5 107.5q0 127 56 194.5q56 67.5 161 67.5q48 0 81.5 -7.5q33.5 -7.5 60.5 -21.5l-23 -69q-23 13 -51 20.5q-28 7.5 -60 7.5q-142 0 -142 -192q0 -38 7.5 -72.5q7.5 -34.5 25 -61q17.5 -26.5 46 -42.5q28.5 -16 70.5 -16q36 0 64.5 11q28.5 11 46.5 25zM290 720h89v-21l-101 -128l-47 0z" />
<glyph unicode="&#264;" horiz-adv-x="571" d="M533 29q-30 -23 -76 -32q-46 -9 -98 -9q-63 0 -118 21.5q-55 21.5 -96 65.5q-41 44 -65 112.5q-24 68.5 -24 162.5q0 98 26.5 166.5q26.5 68.5 70 112q43.5 43.5 97.5 63.5q54 20 110 20q60 0 98 -6.5q38 -6.5 65 -17.5l-20 -73q-48 23 -137 23q-41 0 -81 -15q-40 -15 -71.5 -49q-31.5 -34 -50.5 -89q-19 -55 -19 -135q0 -72 18 -126q18 -54 49.5 -90q31.5 -36 74 -54q42.5 -18 92.5 -18q45 0 78.5 9q33.5 9 56.5 23zM320 870h60l127 -102v-21h-81l-60 49l-17 35l-19 -34l-64 -50h-79l0 22z" />
<glyph unicode="&#265;" horiz-adv-x="451" d="M418 33q-30 -22 -71 -33.5q-41 -11.5 -86 -11.5q-58 0 -98 18.5q-40 18.5 -65.5 53q-25.5 34.5 -37 83q-11.5 48.5 -11.5 107.5q0 127 56 194.5q56 67.5 161 67.5q48 0 81.5 -7.5q33.5 -7.5 60.5 -21.5l-23 -69q-23 13 -51 20.5q-28 7.5 -60 7.5q-142 0 -142 -192q0 -38 7.5 -72.5q7.5 -34.5 25 -61q17.5 -26.5 46 -42.5q28.5 -16 70.5 -16q36 0 64.5 11q28.5 11 46.5 25zM237 732h32l111 -182h-72l-39 66l-21 58l-22 -58l-45 -66l-67 0z" />
<glyph unicode="&#268;" horiz-adv-x="571" d="M533 29q-30 -23 -76 -32q-46 -9 -98 -9q-63 0 -118 21.5q-55 21.5 -96 65.5q-41 44 -65 112.5q-24 68.5 -24 162.5q0 98 26.5 166.5q26.5 68.5 70 112q43.5 43.5 97.5 63.5q54 20 110 20q60 0 98 -6.5q38 -6.5 65 -17.5l-20 -73q-48 23 -137 23q-41 0 -81 -15q-40 -15 -71.5 -49q-31.5 -34 -50.5 -89q-19 -55 -19 -135q0 -72 18 -126q18 -54 49.5 -90q31.5 -36 74 -54q42.5 -18 92.5 -18q45 0 78.5 9q33.5 9 56.5 23zM382 746h-58l-127 103v21h82l59 -50l17 -34l19 33l63 51h78l0 -22z" />
<glyph unicode="&#269;" horiz-adv-x="451" d="M418 33q-30 -22 -71 -33.5q-41 -11.5 -86 -11.5q-58 0 -98 18.5q-40 18.5 -65.5 53q-25.5 34.5 -37 83q-11.5 48.5 -11.5 107.5q0 127 56 194.5q56 67.5 161 67.5q48 0 81.5 -7.5q33.5 -7.5 60.5 -21.5l-23 -69q-23 13 -51 20.5q-28 7.5 -60 7.5q-142 0 -142 -192q0 -38 7.5 -72.5q7.5 -34.5 25 -61q17.5 -26.5 46 -42.5q28.5 -16 70.5 -16q36 0 64.5 11q28.5 11 46.5 25zM270 550h-37l-115 182h78l39 -66l21 -58l22 58l45 66l70 0z" />
<glyph unicode="&#270;" horiz-adv-x="654" d="M85 700q19 3 42.5 4.5q23.5 1.5 49 2q25.5 0.5 50 1q24.5 0.5 45.5 0.5q84 0 145.5 -26q61.5 -26 101.5 -72.5q40 -46.5 59.5 -111.5q19.5 -65 19.5 -143q0 -71 -18.5 -136.5q-18.5 -65.5 -58.5 -116q-40 -50.5 -104 -81q-64 -30.5 -155 -30.5q-16 0 -41.5 0.5q-25.5 0.5 -52.5 2q-27 1.5 -50 2.5q-23 1 -33 3zM274 634q-13 0 -28.5 0q-15.5 0 -30.5 -1q-15 -1 -27.5 -2q-12.5 -1 -19.5 -2l0 -560q5 -1 19 -1.5q14 -0.5 29 -1q15 -0.5 29 -1q14 -0.5 19 -0.5q70 0 117.5 24q47.5 24 76 64.5q28.5 40.5 40.5 93q12 52.5 12 108.5q0 49 -11 98.5q-11 49.5 -38 89.5q-27 40 -72.5 65.5q-45.5 25.5 -114.5 25.5zt0 0zM306 746h-58l-127 103v21h82l59 -50l17 -34l19 33l63 51h78l0 -22z" />
<glyph unicode="&#271;" horiz-adv-x="589" d="M461 172q0 -51 1 -92.5q1 -41.5 9 -81.5l-54 0l-20 71h-4q-20 -35 -58 -58q-38 -23 -89 -23q-100 0 -148.5 63q-48.5 63 -48.5 197q0 128 60.5 194.5q60.5 66.5 166.5 66.5q37 0 58.5 -4q21.5 -4 46.5 -13l0 208h80zM259 58q51 0 81 26.5q30 26.5 41 80.5l0 248q-18 14 -41 20q-23 6 -61 6q-69 0 -108 -45.5q-39 -45.5 -39 -145.5q0 -41 6.5 -76q6.5 -35 21.5 -60q15 -25 39.5 -39.5q24.5 -14.5 59.5 -14.5zt0 0zM614 700q-2 -29 -12 -59.5q-10 -30.5 -22.5 -56.5q-12.5 -26 -25.5 -46q-13 -20 -22 -29l-33 18q17 36 26 81.5q9 45.5 9 91.5z" />
<glyph unicode="&#272;" horiz-adv-x="658" d="M-1 392h90v308q19 3 42.5 4.5q23.5 1.5 49 2q25.5 0.5 50 1q24.5 0.5 45.5 0.5q84 0 145.5 -26q61.5 -26 101.5 -72.5q40 -46.5 59.5 -111.5q19.5 -65 19.5 -143q0 -71 -18.5 -136.5q-18.5 -65.5 -58.5 -116q-40 -50.5 -104 -81q-64 -30.5 -155 -30.5q-16 0 -41.5 0.5q-25.5 0.5 -52.5 2q-27 1.5 -50 2.5q-23 1 -33 3l0 333h-90zM278 634q-13 0 -28.5 0q-15.5 0 -30.5 -1q-15 -1 -27.5 -2q-12.5 -1 -19.5 -2l0 -237h147v-60h-147v-263q5 -1 19 -1.5q14 -0.5 29 -1q15 -0.5 29 -1q14 -0.5 19 -0.5q70 0 117.5 24q47.5 24 76 64.5q28.5 40.5 40.5 93q12 52.5 12 108.5q0 49 -11 98.5q-11 49.5 -38 89.5q-27 40 -72.5 65.5t-114.5 25.5z" />
<glyph unicode="&#273;" horiz-adv-x="540" d="M461 632h81v-60h-81v-400q0 -51 1 -92.5q1 -41.5 9 -81.5l-54 0l-20 71h-4q-20 -35 -58 -58q-38 -23 -89 -23q-100 0 -148.5 63q-48.5 63 -48.5 197q0 128 60.5 194.5q60.5 66.5 166.5 66.5q37 0 58.5 -4q21.5 -4 46.5 -13l0 80h-157v60h157v68h80zM259 58q51 0 81 26.5q30 26.5 41 80.5l0 249q-18 14 -41 19.5q-23 5.5 -61 5.5q-69 0 -108 -45.5q-39 -45.5 -39 -145.5q0 -41 6.5 -76q6.5 -35 21.5 -60.5q15 -25.5 39.5 -39.5t59.5 -14z" />
<glyph unicode="&#274;" horiz-adv-x="536" d="M85 700h381v-74h-298v-229h273v-74h-273v-249h303v-74h-386zM109 843h316v-62l-316 0z" />
<glyph unicode="&#275;" horiz-adv-x="508" d="M442 40q-30 -24 -75.5 -38q-45.5 -14 -96.5 -14q-57 0 -99 18.5q-42 18.5 -69 53q-27 34.5 -40 82.5q-13 48 -13 108q0 128 57 195q57 67 163 67q34 0 68 -7.5q34 -7.5 61 -28.5q27 -21 44 -59.5q17 -38.5 17 -101.5q0 -33 -6 -73l-321 0q0 -44 9 -78q9 -34 28 -57.5q19 -23.5 49.5 -36q30.5 -12.5 74.5 -12.5q34 0 68 12q34 12 51 28zM270 442q-59 0 -94.5 -31q-35.5 -31 -42.5 -106l248 0q0 76 -29 106.5q-29 30.5 -82 30.5zt0 0zM107 643h296v-62l-296 0z" />
<glyph unicode="&#278;" horiz-adv-x="536" d="M85 700h381v-74h-298v-229h273v-74h-273v-249h303v-74h-386zM212 797q0 21 16.5 36.5q16.5 15.5 45.5 15.5q29 0 46.5 -15.5q17.5 -15.5 17.5 -36.5q0 -23 -17.5 -38q-17.5 -15 -46.5 -15q-29 0 -45.5 15t-16.5 38z" />
<glyph unicode="&#279;" horiz-adv-x="508" d="M442 40q-30 -24 -75.5 -38q-45.5 -14 -96.5 -14q-57 0 -99 18.5q-42 18.5 -69 53q-27 34.5 -40 82.5q-13 48 -13 108q0 128 57 195q57 67 163 67q34 0 68 -7.5q34 -7.5 61 -28.5q27 -21 44 -59.5q17 -38.5 17 -101.5q0 -33 -6 -73l-321 0q0 -44 9 -78q9 -34 28 -57.5q19 -23.5 49.5 -36q30.5 -12.5 74.5 -12.5q34 0 68 12q34 12 51 28zM270 442q-59 0 -94.5 -31q-35.5 -31 -42.5 -106l248 0q0 76 -29 106.5q-29 30.5 -82 30.5zt0 0zM216 652q0 23 15.5 39.5q15.5 16.5 39.5 16.5q24 0 41 -16.5q17 -16.5 17 -39.5q0 -23 -17 -38q-17 -15 -41 -15q-24 0 -39.5 15t-15.5 38z" />
<glyph unicode="&#280;" horiz-adv-x="536" d="M85 700h381v-74h-298v-229h273v-74h-273v-249h303v-74h-36q-26 -16 -41.5 -37q-15.5 -21 -15.5 -50q0 -20 13 -35.5q13 -15.5 38 -15.5q19 0 40 10l11 -43q-15 -12 -40 -18q-25 -6 -46 -6q-45 0 -72 24q-27 24 -27 65q0 35 21 62q21 27 59 44l-290 0z" />
<glyph unicode="&#281;" horiz-adv-x="508" d="M442 40q-11 -9 -24 -16q-13 -7 -27 -13q-34 -17 -53 -41.5q-19 -24.5 -20 -56.5q1 -21 14.5 -36q13.5 -15 38.5 -16q19 1 40 10l11 -43q-15 -12 -40.5 -17.5q-25.5 -5.5 -46.5 -5.5q-45 1 -71.5 24.5q-26.5 23.5 -27.5 64.5q0 30 15 54q15 24 41 41q-5 -1 -11 -1q-6 0 -11 0q-57 0 -99 18.5q-42 18.5 -69 53q-27 34.5 -40 82.5q-13 48 -13 108q0 128 57 195q57 67 163 67q34 0 68 -7.5q34 -7.5 61 -28.5q27 -21 44 -59.5q17 -38.5 17 -101.5q0 -33 -6 -73l-321 0q0 -44 9 -78q9 -34 28 -58q19 -24 49.5 -36q30.5 -12 74.5 -12q34 0 68 12q34 12 51 28zM270 442q-59 0 -94.5 -31q-35.5 -31 -42.5 -106l248 0q0 76 -29 106.5t-82 30.5z" />
<glyph unicode="&#282;" horiz-adv-x="536" d="M85 700h381v-74h-298v-229h273v-74h-273v-249h303v-74h-386zM294 746h-58l-127 103v21h82l59 -50l17 -34l19 33l63 51h78l0 -22z" />
<glyph unicode="&#283;" horiz-adv-x="508" d="M442 40q-30 -24 -75.5 -38q-45.5 -14 -96.5 -14q-57 0 -99 18.5q-42 18.5 -69 53q-27 34.5 -40 82.5q-13 48 -13 108q0 128 57 195q57 67 163 67q34 0 68 -7.5q34 -7.5 61 -28.5q27 -21 44 -59.5q17 -38.5 17 -101.5q0 -33 -6 -73l-321 0q0 -44 9 -78q9 -34 28 -57.5q19 -23.5 49.5 -36q30.5 -12.5 74.5 -12.5q34 0 68 12q34 12 51 28zM270 442q-59 0 -94.5 -31q-35.5 -31 -42.5 -106l248 0q0 76 -29 106.5q-29 30.5 -82 30.5zt0 0zM279 550h-37l-115 182h78l39 -66l21 -58l22 58l45 66l70 0z" />
<glyph unicode="&#284;" horiz-adv-x="612" d="M321 349h235v-308q-16 -12 -38.5 -22q-22.5 -10 -48 -17q-25.5 -7 -53 -10.5q-27.5 -3.5 -53.5 -3.5q-67 0 -123 21.5q-56 21.5 -97 66q-41 44.5 -64 113q-23 68.5 -23 161.5q0 97 28 166q28 69 73 112.5q45 43.5 101 63.5q56 20 112 20q60 0 99 -6.5q39 -6.5 66 -17.5l-21 -73q-48 23 -137 23q-42 0 -83.5 -14.5q-41.5 -14.5 -74.5 -48.5q-33 -34 -54 -89q-21 -55 -21 -136q0 -74 17 -128q17 -54 47.5 -89.5q30.5 -35.5 73.5 -53q43 -17.5 94 -17.5q64 0 109 25l0 195l-164 20zM331 870h60l127 -102v-21h-81l-60 49l-17 35l-19 -34l-64 -50h-79l0 22z" />
<glyph unicode="&#285;" horiz-adv-x="537" d="M460 -23q0 -97 -51.5 -143q-51.5 -46 -152.5 -46q-60 0 -96.5 7.5q-36.5 7.5 -62.5 19.5l21 68q23 -9 51 -17q28 -8 73 -8q42 0 68.5 7.5q26.5 7.5 42.5 25q16 17.5 22 45q6 27.5 6 65.5v48h-4q-20 -29 -51 -44.5q-31 -15.5 -81 -15.5q-101 0 -148.5 63q-47.5 63 -47.5 196q0 128 61 194.5q61 66.5 180 66.5q57 0 97.5 -9q40.5 -9 72.5 -21zM259 59q51 0 80 25.5q29 25.5 41 79.5l0 256q-40 19 -102 19q-68 0 -107 -46q-39 -46 -39 -144q0 -42 7 -77q7 -35 22 -60q15 -25 39 -39q24 -14 59 -14zt0 0zM260 732h32l111 -182h-72l-39 66l-21 58l-22 -58l-45 -66l-67 0z" />
<glyph unicode="&#286;" horiz-adv-x="612" d="M321 349h235v-308q-16 -12 -38.5 -22q-22.5 -10 -48 -17q-25.5 -7 -53 -10.5q-27.5 -3.5 -53.5 -3.5q-67 0 -123 21.5q-56 21.5 -97 66q-41 44.5 -64 113q-23 68.5 -23 161.5q0 97 28 166q28 69 73 112.5q45 43.5 101 63.5q56 20 112 20q60 0 99 -6.5q39 -6.5 66 -17.5l-21 -73q-48 23 -137 23q-42 0 -83.5 -14.5q-41.5 -14.5 -74.5 -48.5q-33 -34 -54 -89q-21 -55 -21 -136q0 -74 17 -128q17 -54 47.5 -89.5q30.5 -35.5 73.5 -53q43 -17.5 94 -17.5q64 0 109 25l0 195l-164 20zM223 871q17 -34 52 -52.5q35 -18.5 82 -18.5q48 0 81 21q33 21 47 50l40 -19q-9 -29 -25.5 -51.5q-16.5 -22.5 -39 -38.5q-22.5 -16 -49.5 -24q-27 -8 -55 -8q-27 0 -53.5 7q-26.5 7 -49.5 21q-23 14 -42 36.5q-19 22.5 -31 52.5z" />
<glyph unicode="&#287;" horiz-adv-x="537" d="M460 -23q0 -97 -51.5 -143q-51.5 -46 -152.5 -46q-60 0 -96.5 7.5q-36.5 7.5 -62.5 19.5l21 68q23 -9 51 -17q28 -8 73 -8q42 0 68.5 7.5q26.5 7.5 42.5 25q16 17.5 22 45q6 27.5 6 65.5v48h-4q-20 -29 -51 -44.5q-31 -15.5 -81 -15.5q-101 0 -148.5 63q-47.5 63 -47.5 196q0 128 61 194.5q61 66.5 180 66.5q57 0 97.5 -9q40.5 -9 72.5 -21zM259 59q51 0 80 25.5q29 25.5 41 79.5l0 256q-40 19 -102 19q-68 0 -107 -46q-39 -46 -39 -144q0 -42 7 -77q7 -35 22 -60q15 -25 39 -39q24 -14 59 -14zt0 0zM161 720q18 -36 48 -56.5q30 -20.5 64 -20.5q34 0 61.5 20q27.5 20 44.5 57l42 -18q-3 -24 -15.5 -47.5q-12.5 -23.5 -32 -41.5q-19.5 -18 -45.5 -29q-26 -11 -56 -11q-28 0 -53 8.5q-25 8.5 -45.5 25q-20.5 16.5 -35.5 39q-15 22.5 -22 51.5z" />
<glyph unicode="&#290;" horiz-adv-x="612" d="M321 349h235v-308q-16 -12 -38.5 -22q-22.5 -10 -48 -17q-25.5 -7 -53 -10.5q-27.5 -3.5 -53.5 -3.5q-67 0 -123 21.5q-56 21.5 -97 66q-41 44.5 -64 113q-23 68.5 -23 161.5q0 97 28 166q28 69 73 112.5q45 43.5 101 63.5q56 20 112 20q60 0 99 -6.5q39 -6.5 66 -17.5l-21 -73q-48 23 -137 23q-42 0 -83.5 -14.5q-41.5 -14.5 -74.5 -48.5q-33 -34 -54 -89q-21 -55 -21 -136q0 -74 17 -128q17 -54 47.5 -89.5q30.5 -35.5 73.5 -53q43 -17.5 94 -17.5q64 0 109 25l0 195l-164 20zM294 -102q0 21 15.5 34q15.5 13 35.5 13q25 0 44.5 -17.5q19.5 -17.5 19.5 -57.5q0 -26 -9 -45.5q-9 -19.5 -21.5 -34q-12.5 -14.5 -26 -23q-13.5 -8.5 -23.5 -12.5l-28 32q20 11 32 28q12 17 12 41q-4 -1 -10 -1q-18 0 -29.5 12t-11.5 31z" />
<glyph unicode="&#291;" horiz-adv-x="537" d="M460 -23q0 -97 -51.5 -143q-51.5 -46 -152.5 -46q-60 0 -96.5 7.5q-36.5 7.5 -62.5 19.5l21 68q23 -9 51 -17q28 -8 73 -8q42 0 68.5 7.5q26.5 7.5 42.5 25q16 17.5 22 45q6 27.5 6 65.5v48h-4q-20 -29 -51 -44.5q-31 -15.5 -81 -15.5q-101 0 -148.5 63q-47.5 63 -47.5 196q0 128 61 194.5q61 66.5 180 66.5q57 0 97.5 -9q40.5 -9 72.5 -21zM259 59q51 0 80 25.5q29 25.5 41 79.5l0 256q-40 19 -102 19q-68 0 -107 -46q-39 -46 -39 -144q0 -42 7 -77q7 -35 22 -60q15 -25 39 -39q24 -14 59 -14zt0 0zM345 609q0 -21 -15.5 -34q-15.5 -13 -35.5 -13q-25 0 -44.5 17.5q-19.5 17.5 -19.5 57.5q0 26 9 45.5q9 19.5 21.5 34q12.5 14.5 26 23q13.5 8.5 23.5 12.5l28 -32q-20 -11 -32 -28q-12 -17 -12 -41q4 1 10 1q18 0 29.5 -12t11.5 -31z" />
<glyph unicode="&#292;" horiz-adv-x="672" d="M504 321h-336v-321h-83v700h83v-305h336v305h83v-700h-83zM307 870h60l127 -102v-21h-81l-60 49l-17 35l-19 -34l-64 -50h-79l0 22z" />
<glyph unicode="&#293;" horiz-adv-x="547" d="M398 0v285q0 39 -4.5 68.5q-4.5 29.5 -16.5 49q-12 19.5 -32.5 29.5q-20.5 10 -53.5 10q-47 0 -85 -30.5q-38 -30.5 -49 -78.5l0 -333h-80v700h80v-256h4q26 31 62.5 49.5q36.5 18.5 90.5 18.5q42 0 73 -9.5q31 -9.5 51.5 -33.5q20.5 -24 30 -64.5q9.5 -40.5 9.5 -102.5v-302zM92 870h60l127 -102v-21h-81l-60 49l-17 35l-19 -34l-64 -50h-79l0 22z" />
<glyph unicode="&#294;" horiz-adv-x="677" d="M9 587h79v113h83v-113h336v113h83v-113h79v-64h-79v-523h-83v321h-336v-321h-83v523h-79zM507 395v128h-336l0 -128z" />
<glyph unicode="&#295;" horiz-adv-x="549" d="M-1 632h80v68h80v-68h160v-60h-160v-128h4q26 31 62.5 49.5q36.5 18.5 90.5 18.5q42 0 73 -9.5q31 -9.5 51.5 -33.5q20.5 -24 30 -64.5q9.5 -40.5 9.5 -102.5v-302h-80v285q0 39 -4.5 68.5q-4.5 29.5 -16.5 49q-12 19.5 -32.5 29.5q-20.5 10 -53.5 10q-47 0 -85 -30.5q-38 -30.5 -49 -78.5l0 -333h-80v572l-80 0z" />
<glyph unicode="&#298;" horiz-adv-x="291" d="M104 700h83v-700h-83zM-12 843h316v-62l-316 0z" />
<glyph unicode="&#299;" horiz-adv-x="268" d="M94 500h80v-500h-80zM-14 643h296v-62l-296 0z" />
<glyph unicode="&#302;" horiz-adv-x="291" d="M104 700h83v-700h-14q-26 -16 -41 -37.5q-15 -21.5 -15 -50.5q0 -20 13 -35.5q13 -15.5 38 -15.5q19 0 40 10l11 -43q-15 -12 -40 -17.5q-25 -5.5 -46 -5.5q-45 0 -72 23.5q-27 23.5 -27 64.5q0 35 21 62.5q21 27.5 59 44.5l-10 0z" />
<glyph unicode="&#303;" horiz-adv-x="269" d="M94 500h80v-500h-18q-25 -16 -39.5 -38q-14.5 -22 -14.5 -50q0 -20 13 -35.5q13 -15.5 38 -15.5q19 0 40 10l11 -43q-15 -12 -40 -17.5q-25 -5.5 -47 -5.5q-45 0 -71.5 23.5q-26.5 23.5 -26.5 64.5q0 35 21 62.5q21 27.5 59 44.5l-5 0zM77 652q0 23 15.5 39.5q15.5 16.5 39.5 16.5q24 0 41 -16.5q17 -16.5 17 -39.5q0 -23 -17 -38q-17 -15 -41 -15q-24 0 -39.5 15t-15.5 38z" />
<glyph unicode="&#304;" horiz-adv-x="291" d="M104 700h83v-700h-83zM84 797q0 21 16.5 36.5q16.5 15.5 45.5 15.5q29 0 46.5 -15.5q17.5 -15.5 17.5 -36.5q0 -23 -17.5 -38q-17.5 -15 -46.5 -15q-29 0 -45.5 15t-16.5 38z" />
<glyph unicode="&#305;" horiz-adv-x="268" d="M94 500h80v-500l-80 0z" />
<glyph unicode="&#308;" horiz-adv-x="291" d="M112 700h83v-546q0 -80 -35.5 -122q-35.5 -42 -107.5 -42q-8 0 -20 1q-12 1 -24 3q-12 2 -23.5 5q-11.5 3 -18.5 7l16 71q28 -13 61 -13q42 0 55.5 29.5q13.5 29.5 13.5 80.5zM124 870h60l127 -102v-21h-81l-60 49l-17 35l-19 -34l-64 -50h-79l0 22z" />
<glyph unicode="&#309;" horiz-adv-x="267" d="M93 500h80v-527q0 -93 -32 -139q-32 -46 -102 -46q-8 0 -15 0.5q-7 0.5 -15 1.5l0 68q28 0 44.5 8.5q16.5 8.5 25.5 26.5q9 18 11.5 45.5q2.5 27.5 2.5 64.5zM123 732h32l111 -182h-72l-39 66l-21 58l-22 -58l-45 -66l-67 0z" />
<glyph unicode="&#310;" horiz-adv-x="610" d="M215 324h-47v-324h-83v700h83v-326l45 14l235 312h96l-234 -301l-42 -33l51 -40l256 -326h-105zM232 -102q0 21 15.5 34q15.5 13 35.5 13q25 0 44.5 -17.5q19.5 -17.5 19.5 -57.5q0 -26 -9 -45.5q-9 -19.5 -21.5 -34q-12.5 -14.5 -26 -23q-13.5 -8.5 -23.5 -12.5l-28 32q20 11 32 28q12 17 12 41q-4 -1 -10 -1q-18 0 -29.5 12t-11.5 31z" />
<glyph unicode="&#311;" horiz-adv-x="479" d="M203 225h-46v-225h-80v700h80v-426l41 14l155 212h93l-153 -201l-41 -33l50 -40l167 -226h-99zM183 -102q0 21 15.5 34q15.5 13 35.5 13q25 0 44.5 -17.5q19.5 -17.5 19.5 -57.5q0 -26 -9 -45.5q-9 -19.5 -21.5 -34q-12.5 -14.5 -26 -23q-13.5 -8.5 -23.5 -12.5l-28 32q20 11 32 28q12 17 12 41q-4 -1 -10 -1q-18 0 -29.5 12t-11.5 31z" />
<glyph unicode="&#313;" horiz-adv-x="517" d="M499 0h-414v700h83v-626h331zM231 870h114v-21l-163 -97l-69 0z" />
<glyph unicode="&#314;" horiz-adv-x="292" d="M166 123q0 -35 12 -50q12 -15 34 -15q13 0 28 2q15 2 34 9l9 -63q-16 -8 -44.5 -13q-28.5 -5 -49.5 -5q-45 0 -74 25.5q-29 25.5 -29 86.5v600h80zM208 870h114v-21l-163 -97l-69 0z" />
<glyph unicode="&#315;" horiz-adv-x="517" d="M499 0h-414v700h83v-626h331zM192 -102q0 21 15.5 34q15.5 13 35.5 13q25 0 44.5 -17.5q19.5 -17.5 19.5 -57.5q0 -26 -9 -45.5q-9 -19.5 -21.5 -34q-12.5 -14.5 -26 -23q-13.5 -8.5 -23.5 -12.5l-28 32q20 11 32 28q12 17 12 41q-4 -1 -10 -1q-18 0 -29.5 12t-11.5 31z" />
<glyph unicode="&#316;" horiz-adv-x="292" d="M166 123q0 -35 12 -50q12 -15 34 -15q13 0 28 2q15 2 34 9l9 -63q-16 -8 -44.5 -13q-28.5 -5 -49.5 -5q-45 0 -74 25.5q-29 25.5 -29 86.5v600h80zM117 -102q0 21 15.5 34q15.5 13 35.5 13q25 0 44.5 -17.5q19.5 -17.5 19.5 -57.5q0 -26 -9 -45.5q-9 -19.5 -21.5 -34q-12.5 -14.5 -26 -23q-13.5 -8.5 -23.5 -12.5l-28 32q20 11 32 28q12 17 12 41q-4 -1 -10 -1q-18 0 -29.5 12t-11.5 31z" />
<glyph unicode="&#317;" horiz-adv-x="517" d="M499 0h-414v700h83v-626h331zM429 700q-2 -29 -12 -59.5q-10 -30.5 -22.5 -56.5q-12.5 -26 -25.5 -46q-13 -20 -22 -29l-33 18q17 36 26 81.5q9 45.5 9 91.5z" />
<glyph unicode="&#318;" horiz-adv-x="292" d="M166 123q0 -35 12 -50q12 -15 34 -15q13 0 28 2q15 2 34 9l9 -63q-16 -8 -44.5 -13q-28.5 -5 -49.5 -5q-45 0 -74 25.5q-29 25.5 -29 86.5v600h80zM321 700q-2 -29 -12 -59.5q-10 -30.5 -22.5 -56.5q-12.5 -26 -25.5 -46q-13 -20 -22 -29l-33 18q17 36 26 81.5q9 45.5 9 91.5z" />
<glyph unicode="&#321;" horiz-adv-x="517" d="M15 287l70 55v358h83v-293l107 84v-80l-107 -82v-255h331v-74h-414v265l-70 -54z" />
<glyph unicode="&#322;" horiz-adv-x="292" d="M10 285l76 59v356h80v-293l104 82v-80l-104 -80v-206q0 -35 12 -50q12 -15 34 -15q13 0 28 2q15 2 34 9l9 -63q-16 -8 -44.5 -13q-28.5 -5 -49.5 -5q-45 0 -74 25.5q-29 25.5 -29 86.5v167l-76 -58z" />
<glyph unicode="&#323;" horiz-adv-x="673" d="M211 458l-54 101h-4l10 -101v-458h-78v711h44l335 -467l52 -96h5l-11 96v456h78v-711h-44zM407 870h114v-21l-163 -97l-69 0z" />
<glyph unicode="&#324;" horiz-adv-x="547" d="M398 0v285q0 78 -22.5 117.5q-22.5 39.5 -82.5 39.5q-53 0 -87.5 -28.5q-34.5 -28.5 -48.5 -71.5l0 -342h-80v500h56l15 -61h4q24 32 64.5 52.5q40.5 20.5 96.5 20.5q41 0 72 -9.5q31 -9.5 51.5 -33.5q20.5 -24 31 -64.5q10.5 -40.5 10.5 -102.5v-302zM300 720h89v-21l-101 -128l-47 0z" />
<glyph unicode="&#325;" horiz-adv-x="673" d="M211 458l-54 101h-4l10 -101v-458h-78v711h44l335 -467l52 -96h5l-11 96v456h78v-711h-44zM279 -102q0 21 15.5 34q15.5 13 35.5 13q25 0 44.5 -17.5q19.5 -17.5 19.5 -57.5q0 -26 -9 -45.5q-9 -19.5 -21.5 -34q-12.5 -14.5 -26 -23q-13.5 -8.5 -23.5 -12.5l-28 32q20 11 32 28q12 17 12 41q-4 -1 -10 -1q-18 0 -29.5 12t-11.5 31z" />
<glyph unicode="&#326;" horiz-adv-x="547" d="M398 0v285q0 78 -22.5 117.5q-22.5 39.5 -82.5 39.5q-53 0 -87.5 -28.5q-34.5 -28.5 -48.5 -71.5l0 -342h-80v500h56l15 -61h4q24 32 64.5 52.5q40.5 20.5 96.5 20.5q41 0 72 -9.5q31 -9.5 51.5 -33.5q20.5 -24 31 -64.5q10.5 -40.5 10.5 -102.5v-302zM216 -102q0 21 15.5 34q15.5 13 35.5 13q25 0 44.5 -17.5q19.5 -17.5 19.5 -57.5q0 -26 -9 -45.5q-9 -19.5 -21.5 -34q-12.5 -14.5 -26 -23q-13.5 -8.5 -23.5 -12.5l-28 32q20 11 32 28q12 17 12 41q-4 -1 -10 -1q-18 0 -29.5 12t-11.5 31z" />
<glyph unicode="&#327;" horiz-adv-x="673" d="M211 458l-54 101h-4l10 -101v-458h-78v711h44l335 -467l52 -96h5l-11 96v456h78v-711h-44zM364 746h-58l-127 103v21h82l59 -50l17 -34l19 33l63 51h78l0 -22z" />
<glyph unicode="&#328;" horiz-adv-x="547" d="M398 0v285q0 78 -22.5 117.5q-22.5 39.5 -82.5 39.5q-53 0 -87.5 -28.5q-34.5 -28.5 -48.5 -71.5l0 -342h-80v500h56l15 -61h4q24 32 64.5 52.5q40.5 20.5 96.5 20.5q41 0 72 -9.5q31 -9.5 51.5 -33.5q20.5 -24 31 -64.5q10.5 -40.5 10.5 -102.5v-302zM289 550h-37l-115 182h78l39 -66l21 -58l22 58l45 66l70 0z" />
<glyph unicode="&#332;" horiz-adv-x="684" d="M56 350q0 175 74 268.5q74 93.5 211 93.5q74 0 128 -26q54 -26 89.5 -73.5q35.5 -47.5 52.5 -114q17 -66.5 17 -148.5q0 -175 -74.5 -268.5q-74.5 -93.5 -212.5 -93.5q-73 0 -126.5 26q-53.5 26 -89 73.5q-35.5 47.5 -52.5 114q-17 66.5 -17 148.5zt0 0zM144 350q0 -58 11.5 -110q11.5 -52 35.5 -91.5q24 -39.5 61.5 -63q37.5 -23.5 88.5 -23.5q93 0 146 70.5q53 70.5 53 217.5q0 57 -11.5 109.5q-11.5 52.5 -36 92q-24.5 39.5 -62 63q-37.5 23.5 -89.5 23.5q-92 0 -144.5 -70.5q-52.5 -70.5 -52.5 -217.5zt0 0zM190 843h316v-62l-316 0z" />
<glyph unicode="&#333;" horiz-adv-x="536" d="M49 250q0 127 56.5 194.5q56.5 67.5 162.5 67.5q56 0 97.5 -18.5q41.5 -18.5 68.5 -53q27 -34.5 40 -83q13 -48.5 13 -107.5q0 -127 -56.5 -194.5q-56.5 -67.5 -162.5 -67.5q-56 0 -97.5 18.5q-41.5 18.5 -68.5 53q-27 34.5 -40 83q-13 48.5 -13 107.5zt0 0zM132 250q0 -38 7.5 -73q7.5 -35 23.5 -61q16 -26 42 -42q26 -16 63 -16q136 -1 136 192q0 39 -7.5 74q-7.5 35 -23.5 61q-16 26 -42 41.5q-26 15.5 -63 15.5q-136 1 -136 -192zt0 0zM120 643h296v-62l-296 0z" />
<glyph unicode="&#336;" horiz-adv-x="684" d="M56 350q0 175 74 268.5q74 93.5 211 93.5q74 0 128 -26q54 -26 89.5 -73.5q35.5 -47.5 52.5 -114q17 -66.5 17 -148.5q0 -175 -74.5 -268.5q-74.5 -93.5 -212.5 -93.5q-73 0 -126.5 26q-53.5 26 -89 73.5q-35.5 47.5 -52.5 114q-17 66.5 -17 148.5zt0 0zM144 350q0 -58 11.5 -110q11.5 -52 35.5 -91.5q24 -39.5 61.5 -63q37.5 -23.5 88.5 -23.5q93 0 146 70.5q53 70.5 53 217.5q0 57 -11.5 109.5q-11.5 52.5 -36 92q-24.5 39.5 -62 63q-37.5 23.5 -89.5 23.5q-92 0 -144.5 -70.5q-52.5 -70.5 -52.5 -217.5zt0 0zM306 850h93v-16l-100 -93h-57zM468 850h99v-16l-143 -93l-58 0z" />
<glyph unicode="&#337;" horiz-adv-x="536" d="M49 250q0 127 56.5 194.5q56.5 67.5 162.5 67.5q56 0 97.5 -18.5q41.5 -18.5 68.5 -53q27 -34.5 40 -83q13 -48.5 13 -107.5q0 -127 -56.5 -194.5q-56.5 -67.5 -162.5 -67.5q-56 0 -97.5 18.5q-41.5 18.5 -68.5 53q-27 34.5 -40 83q-13 48.5 -13 107.5zt0 0zM132 250q0 -38 7.5 -73q7.5 -35 23.5 -61q16 -26 42 -42q26 -16 63 -16q136 -1 136 192q0 39 -7.5 74q-7.5 35 -23.5 61q-16 26 -42 41.5q-26 15.5 -63 15.5q-136 1 -136 -192zt0 0zM211 700h78v-16l-71 -113h-42zM357 700h86v-16l-114 -113l-45 0z" />
<glyph unicode="&#338;" horiz-adv-x="932" d="M481 618q-28 11 -65 15.5q-37 4.5 -75 4.5q-92 0 -144.5 -70.5q-52.5 -70.5 -52.5 -217.5q0 -58 11.5 -110q11.5 -52 36.5 -91.5q25 -39.5 64 -63q39 -23.5 93 -23.5q29 0 59.5 2q30.5 2 72.5 15zM481 0q-25 -5 -60 -8.5q-35 -3.5 -80 -3.5q-73 0 -126.5 26q-53.5 26 -89 73.5q-35.5 47.5 -52.5 114q-17 66.5 -17 148.5q0 175 74 268.5q74 93.5 211 93.5q47 0 77.5 -3.5q30.5 -3.5 62.5 -8.5l381 0v-74h-298v-229h273v-74h-273v-249h303l0 -74z" />
<glyph unicode="&#339;" horiz-adv-x="858" d="M132 250q0 -38 7.5 -73q7.5 -35 23.5 -61.5q16 -26.5 42 -42q26 -15.5 63 -15.5q135 -1 135 192q0 39 -7 74q-7 35 -23 61q-16 26 -42 41.5q-26 15.5 -63 15.5q-136 1 -136 -192zt0 0zM442 81q-27 -45 -70.5 -69q-43.5 -24 -103.5 -24q-56 0 -97.5 18.5q-41.5 18.5 -68.5 53q-27 34.5 -40 83q-13 48.5 -13 107.5q0 127 56.5 194.5q56.5 67.5 162.5 67.5q63 0 106.5 -26q43.5 -26 69.5 -66q26 42 70.5 67q44.5 25 104.5 25q34 0 68 -7.5q34 -7.5 61 -28.5q27 -21 44 -59.5q17 -38.5 17 -101.5q0 -17 -1 -35q-1 -18 -4 -38l-323 0q0 -44 9 -78.5q9 -34.5 28 -58.5q19 -24 50 -36q31 -12 75 -12q35 0 68.5 12.5q33.5 12.5 50.5 28.5l30 -58q-30 -24 -75.5 -38q-45.5 -14 -96.5 -14q-62 0 -107 25q-45 25 -71 68zt0 0zM620 443q-58 0 -94 -31.5q-36 -31.5 -43 -106.5l248 0v9q0 69 -30 99t-81 30z" />
<glyph unicode="&#340;" horiz-adv-x="595" d="M85 693q38 7 87.5 11q49.5 4 90.5 4q46 0 87.5 -10q41.5 -10 73 -33q31.5 -23 50.5 -60q19 -37 19 -90q0 -82 -45 -133q-45 -51 -114 -68l48 -37l174 -277h-97l-193 302l-98 15v-317h-83zM265 636q-13 0 -27 0q-14 0 -27 -1q-13 -1 -24.5 -2q-11.5 -1 -18.5 -3l0 -258h78q69 0 114 34q45 34 45 106q0 54 -37 89q-37 35 -103 35zt0 0zM320 870h114v-21l-163 -97l-69 0z" />
<glyph unicode="&#341;" horiz-adv-x="340" d="M313 423q-30 10 -57 10q-43 0 -68 -23.5q-25 -23.5 -31 -59.5l0 -350h-80v500h56l15 -61h4q19 34 45.5 52.5q26.5 18.5 67.5 18.5q29 0 65 -10zM195 720h89v-21l-101 -128l-47 0z" />
<glyph unicode="&#342;" horiz-adv-x="595" d="M85 693q38 7 87.5 11q49.5 4 90.5 4q46 0 87.5 -10q41.5 -10 73 -33q31.5 -23 50.5 -60q19 -37 19 -90q0 -82 -45 -133q-45 -51 -114 -68l48 -37l174 -277h-97l-193 302l-98 15v-317h-83zM265 636q-13 0 -27 0q-14 0 -27 -1q-13 -1 -24.5 -2q-11.5 -1 -18.5 -3l0 -258h78q69 0 114 34q45 34 45 106q0 54 -37 89q-37 35 -103 35zt0 0zM239 -102q0 21 15.5 34q15.5 13 35.5 13q25 0 44.5 -17.5q19.5 -17.5 19.5 -57.5q0 -26 -9 -45.5q-9 -19.5 -21.5 -34q-12.5 -14.5 -26 -23q-13.5 -8.5 -23.5 -12.5l-28 32q20 11 32 28q12 17 12 41q-4 -1 -10 -1q-18 0 -29.5 12t-11.5 31z" />
</font>
</defs>
</svg>
